<?xml version="1.0" standalone="no"?>
<!DOCTYPE svg PUBLIC "-//W3C//DTD SVG 1.1//EN" "http://www.w3.org/Graphics/SVG/1.1/DTD/svg11.dtd" >
<svg xmlns="http://www.w3.org/2000/svg" xmlns:xlink="http://www.w3.org/1999/xlink" version="1.1">
<metadata>
Created by FontForge 20170731 at Fri Apr 16 08:01:45 2021
 By Aleksey,,,
Copyright 2004 Monotype Imaging, Inc. All rights reserved.
</metadata>
<defs>
<font id="NeoSansPro-Regular" horiz-adv-x="1239" >
  <font-face 
    font-family="Neo Sans Pro"
    font-weight="400"
    font-stretch="normal"
    units-per-em="2048"
    panose-1="2 11 5 4 3 5 4 4 2 4"
    ascent="1567"
    descent="-481"
    x-height="1126"
    cap-height="1522"
    bbox="-252.667 -442 2855 2007"
    underline-thickness="116"
    underline-position="-274"
    unicode-range="U+0020-FB04"
  />
<missing-glyph horiz-adv-x="1024" 
d="M25 0v1362h972v-1362h-972zM180 1266l332 -498l330 498h-662zM123 1178v-992q0 -1 82.5 123t164.5 249l83 124zM901 1178l-332 -496l332 -498v994zM842 98l-330 496l-332 -496h662z" />
    <glyph glyph-name="f_b" unicode="fb" horiz-adv-x="1910" 
d="M1808 492q0 -238 -111 -372t-335 -134q-204 0 -377 34q-26 4 -34.5 14.5t-8.5 33.5v1347h-336q-75 0 -106 -29.5t-31 -111.5v-148h215q17 0 28 -10.5t11 -25.5v-80q0 -15 -11 -25t-28 -10h-215v-934q0 -15 -12 -28t-27 -13h-100q-17 0 -29 12.5t-12 28.5v934l-199 22
q-17 2 -28 12t-11 25v56q0 15 11 25.5t28 10.5h199v148q0 156 77 220.5t222 64.5q235 0 391 -19h104q16 0 27.5 -11t11.5 -28v-381q117 21 240 21q221 0 333.5 -129t112.5 -373v-147zM1628 492v147q0 172 -60.5 258t-205.5 86q-161 0 -240 -14v-813q152 -13 240 -13
q146 0 206 86.5t60 262.5z" />
    <glyph glyph-name="f_f_b" unicode="ffb" horiz-adv-x="2541" 
d="M729 1446q0 -31 -37 -31h-98q-73 0 -99 -28.5t-26 -112.5v-148h473v148q0 156 77 220.5t222 64.5q213 0 369 -19h104q16 0 27.5 -11t11.5 -28v-381q117 21 240 21q221 0 333.5 -129t112.5 -373v-147q0 -238 -111 -372t-335 -134q-204 0 -377 34q-26 4 -34.5 14.5
t-8.5 33.5v1347h-313q-75 0 -106.5 -29.5t-31.5 -111.5v-148h215q17 0 28 -10.5t11 -25.5v-80q0 -15 -11 -25t-28 -10h-215v-934q0 -15 -12 -28t-27 -13h-100q-17 0 -29 12.5t-12 28.5v934h-473v-934q0 -15 -12 -28t-27 -13h-100q-17 0 -29 12.5t-12 28.5v934l-199 22
q-17 2 -28 12t-11 25v56q0 15 11 25.5t28 10.5h199v148q0 157 71.5 221t214.5 64q57 0 115 -13q39 -10 39 -33v-67zM2259 492v147q0 172 -60.5 258t-205.5 86q-161 0 -240 -14v-813q152 -13 240 -13q146 0 206 86.5t60 262.5z" />
    <glyph glyph-name="f_f_h" unicode="ffh" horiz-adv-x="2574" 
d="M1753 1501v-424q70 31 156 47.5t157 16.5q171 0 270 -104.5t99 -321.5v-674q0 -17 -12 -29t-29 -12h-98q-17 0 -29 12t-12 29v674q0 146 -56 207t-163 61q-57 0 -139.5 -14.5t-143.5 -42.5v-885q0 -16 -12 -28.5t-29 -12.5h-100q-15 0 -27 12t-12 29v1374h-313
q-75 0 -106.5 -29.5t-31.5 -111.5v-148h215q17 0 28 -10.5t11 -25.5v-80q0 -15 -11 -25t-28 -10h-215v-934q0 -15 -12 -28t-27 -13h-100q-17 0 -29 12.5t-12 28.5v934h-473v-934q0 -15 -12 -28t-27 -13h-100q-17 0 -29 12.5t-12 28.5v934l-199 22q-17 2 -28 12t-11 25v56
q0 15 11 25.5t28 10.5h199v148q0 157 71.5 221t214.5 64q57 0 115 -13q39 -10 39 -33v-67q0 -31 -37 -31h-98q-73 0 -99 -28.5t-26 -112.5v-148h473v148q0 156 77 220.5t222 64.5q213 0 369 -19h104q16 0 27.5 -11t11.5 -28z" />
    <glyph glyph-name="f_f_j" unicode="ffj" horiz-adv-x="1939" 
d="M1776 -131q0 -153 -63 -212.5t-193 -59.5q-56 0 -111 8q-37 5 -37 33v75q0 29 43 29h84q58 0 77 25t19 102v1106h-473v-934q0 -15 -12 -28t-27 -13h-100q-17 0 -29 12.5t-12 28.5v934h-473v-934q0 -15 -12 -28t-27 -13h-100q-17 0 -29 12.5t-12 28.5v934l-199 22
q-17 2 -28 12t-11 25v56q0 15 11 25.5t28 10.5h199v148q0 157 71.5 221t214.5 64q57 0 115 -13q39 -10 39 -33v-67q0 -31 -37 -31h-98q-73 0 -99 -28.5t-26 -112.5v-148h473v148q0 157 72 221t215 64q55 0 114 -13q39 -10 39 -33v-67q0 -31 -36 -31h-99q-73 0 -99 -28.5
t-26 -112.5v-148h617q17 0 27 -11.5t10 -29.5v-1216zM1780 1346q0 -17 -12 -28t-29 -11h-105q-16 0 -28.5 11t-12.5 28v165q0 16 12 28.5t29 12.5h105q16 0 28.5 -12t12.5 -29v-165z" />
    <glyph glyph-name="f_f_k" unicode="ffk" horiz-adv-x="2449" 
d="M1573 1415h-313q-75 0 -106.5 -29.5t-31.5 -111.5v-148h215q17 0 28 -10.5t11 -25.5v-80q0 -15 -11 -25t-28 -10h-215v-934q0 -15 -12 -28t-27 -13h-100q-17 0 -29 12.5t-12 28.5v934h-473v-934q0 -15 -12 -28t-27 -13h-100q-17 0 -29 12.5t-12 28.5v934l-199 22
q-17 2 -28 12t-11 25v56q0 15 11 25.5t28 10.5h199v148q0 157 71.5 221t214.5 64q57 0 115 -13q39 -10 39 -33v-67q0 -31 -37 -31h-98q-73 0 -99 -28.5t-26 -112.5v-148h473v148q0 156 77 220.5t222 64.5q213 0 369 -19h104q16 0 27.5 -11t11.5 -28v-854l410 461
q15 18 41 18h143q31 0 31 -22q0 -12 -11 -23l-450 -487l455 -549q6 -6 6 -18q0 -11 -6.5 -19t-16.5 -8h-147q-16 0 -25 5.5t-22 21.5l-408 503v-489q0 -17 -12 -29t-29 -12h-98q-17 0 -29 12t-12 29v1374z" />
    <glyph glyph-name="f_h" unicode="fh" horiz-adv-x="1943" 
d="M1122 1501v-424q70 31 156.5 47.5t157.5 16.5q171 0 269.5 -104.5t98.5 -321.5v-674q0 -17 -12 -29t-29 -12h-98q-17 0 -29 12t-12 29v674q0 146 -56 207t-163 61q-57 0 -139.5 -14.5t-143.5 -42.5v-885q0 -16 -12 -28.5t-29 -12.5h-100q-15 0 -27 12t-12 29v1374h-336
q-75 0 -106 -29.5t-31 -111.5v-148h215q17 0 28 -10.5t11 -25.5v-80q0 -15 -11 -25t-28 -10h-215v-934q0 -15 -12 -28t-27 -13h-100q-17 0 -29 12.5t-12 28.5v934l-199 22q-17 2 -28 12t-11 25v56q0 15 11 25.5t28 10.5h199v148q0 156 77 220.5t222 64.5q235 0 391 -19h104
q16 0 27.5 -11t11.5 -28z" />
    <glyph glyph-name="f_j" unicode="fj" horiz-adv-x="1286" 
d="M1122 -131q0 -153 -63 -212.5t-193 -59.5q-55 0 -110 8q-37 5 -37 33v75q0 29 43 29h84q58 0 77 25t19 102v1106h-473v-934q0 -15 -12 -28t-27 -13h-100q-17 0 -29 12.5t-12 28.5v934l-199 22q-17 2 -28 12t-11 25v56q0 15 11 25.5t28 10.5h199v148q0 157 71.5 221
t214.5 64q57 0 115 -13q39 -10 39 -33v-67q0 -31 -37 -31h-98q-73 0 -99 -28.5t-26 -112.5v-148h616q17 0 27 -11.5t10 -29.5v-1216zM1126 1346q0 -17 -12 -28t-29 -11h-104q-16 0 -28.5 11t-12.5 28v165q0 16 12 28.5t29 12.5h104q16 0 28.5 -12t12.5 -29v-165z" />
    <glyph glyph-name="f_k" unicode="fk" horiz-adv-x="1818" 
d="M942 1415h-336q-75 0 -106 -29.5t-31 -111.5v-148h215q17 0 28 -10.5t11 -25.5v-80q0 -15 -11 -25t-28 -10h-215v-934q0 -15 -12 -28t-27 -13h-100q-17 0 -29 12.5t-12 28.5v934l-199 22q-17 2 -28 12t-11 25v56q0 15 11 25.5t28 10.5h199v148q0 156 77 220.5t222 64.5
q235 0 391 -19h104q16 0 27.5 -11t11.5 -28v-854l410 461q15 18 41 18h143q31 0 31 -22q0 -13 -10 -23l-451 -487l455 -549q6 -6 6 -18q0 -11 -6.5 -19t-16.5 -8h-147q-16 0 -25 5.5t-22 21.5l-408 503v-489q0 -17 -12 -29t-29 -12h-98q-17 0 -29 12t-12 29v1374z" />
    <glyph glyph-name="f_f" unicode="ff" horiz-adv-x="1433" 
d="M1382 1446q0 -31 -36 -31h-99q-73 0 -99 -28.5t-26 -112.5v-148h215q17 0 28 -10.5t11 -25.5v-80q0 -15 -11 -25t-28 -10h-215v-934q0 -15 -12 -28t-27 -13h-100q-17 0 -29 12.5t-12 28.5v934h-473v-934q0 -15 -12 -28t-27 -13h-100q-17 0 -29 12.5t-12 28.5v934l-199 22
q-17 2 -28 12t-11 25v56q0 15 11 25.5t28 10.5h199v148q0 157 71.5 221t214.5 64q57 0 115 -13q39 -10 39 -33v-67q0 -31 -37 -31h-98q-73 0 -99 -28.5t-26 -112.5v-148h473v148q0 157 72 221t215 64q55 0 114 -13q39 -10 39 -33v-67z" />
    <glyph glyph-name="fi" unicode="fi" horiz-adv-x="1286" 
d="M1122 41q0 -17 -12 -29t-29 -12h-98q-17 0 -29 12t-12 29v934h-473v-934q0 -15 -12 -28t-27 -13h-100q-17 0 -29 12.5t-12 28.5v934l-199 22q-17 2 -28 12t-11 25v56q0 15 11 25.5t28 10.5h199v148q0 157 71.5 221t214.5 64q57 0 115 -13q39 -10 39 -33v-67
q0 -31 -37 -31h-98q-73 0 -99 -28.5t-26 -112.5v-148h612q17 0 29 -12t12 -29v-1044zM1126 1348q0 -17 -12 -29t-29 -12h-104q-17 0 -29 12t-12 29v163q0 17 12 29t29 12h104q17 0 29 -12t12 -29v-163z" />
    <glyph glyph-name="fl" unicode="fl" horiz-adv-x="1280" 
d="M1122 41q0 -16 -10.5 -28.5t-26.5 -12.5h-106q-15 0 -26 12t-11 29v1374h-336q-75 0 -106 -29.5t-31 -111.5v-148h215q17 0 28 -10.5t11 -25.5v-80q0 -15 -11 -25t-28 -10h-215v-934q0 -15 -12 -28t-27 -13h-100q-17 0 -29 12.5t-12 28.5v934l-199 22q-17 2 -28 12
t-11 25v56q0 15 11 25.5t28 10.5h199v148q0 156 77 220.5t222 64.5q235 0 391 -19h106q15 0 26 -11t11 -28v-1460z" />
    <glyph glyph-name="f_f_i" unicode="ffi" horiz-adv-x="1939" 
d="M1776 41q0 -17 -12 -29t-29 -12h-99q-17 0 -29 12t-12 29v934h-473v-934q0 -15 -12 -28t-27 -13h-100q-17 0 -29 12.5t-12 28.5v934h-473v-934q0 -15 -12 -28t-27 -13h-100q-17 0 -29 12.5t-12 28.5v934l-199 22q-17 2 -28 12t-11 25v56q0 15 11 25.5t28 10.5h199v148
q0 157 71.5 221t214.5 64q57 0 115 -13q39 -10 39 -33v-67q0 -31 -37 -31h-98q-73 0 -99 -28.5t-26 -112.5v-148h473v148q0 157 72 221t215 64q55 0 114 -13q39 -10 39 -33v-67q0 -31 -36 -31h-99q-73 0 -99 -28.5t-26 -112.5v-148h613q17 0 29 -12t12 -29v-1044zM1780 1348
q0 -17 -12 -29t-29 -12h-105q-17 0 -29 12t-12 29v163q0 17 12 29t29 12h105q17 0 29 -12t12 -29v-163z" />
    <glyph glyph-name="f_f_l" unicode="ffl" horiz-adv-x="1933" 
d="M729 1446q0 -31 -37 -31h-98q-73 0 -99 -28.5t-26 -112.5v-148h473v148q0 156 77 220.5t222 64.5q233 0 389 -19h107q15 0 26 -11t11 -28v-1460q0 -16 -10.5 -28.5t-26.5 -12.5h-107q-15 0 -26 12t-11 29v1374h-333q-75 0 -106.5 -29.5t-31.5 -111.5v-148h215
q17 0 28 -10.5t11 -25.5v-80q0 -15 -11 -25t-28 -10h-215v-934q0 -15 -12 -28t-27 -13h-100q-17 0 -29 12.5t-12 28.5v934h-473v-934q0 -15 -12 -28t-27 -13h-100q-17 0 -29 12.5t-12 28.5v934l-199 22q-17 2 -28 12t-11 25v56q0 15 11 25.5t28 10.5h199v148q0 157 71.5 221
t214.5 64q57 0 115 -13q39 -10 39 -33v-67z" />
    <glyph glyph-name=".notdef" horiz-adv-x="1024" 
d="M25 0v1362h972v-1362h-972zM180 1266l332 -498l330 498h-662zM123 1178v-992q0 -1 82.5 123t164.5 249l83 124zM901 1178l-332 -496l332 -498v994zM842 98l-330 496l-332 -496h662z" />
    <glyph glyph-name=".null" horiz-adv-x="0" 
 />
    <glyph glyph-name="nonmarkingreturn" horiz-adv-x="682" 
 />
    <glyph glyph-name="space" unicode=" " horiz-adv-x="505" 
 />
    <glyph glyph-name="exclam" unicode="!" horiz-adv-x="444" 
d="M315 1501l-16 -1065q0 -16 -11 -27.5t-28 -11.5h-74q-15 0 -28 12t-13 27l-14 1065q0 17 12.5 28t28.5 11h102q16 0 28.5 -11t12.5 -28zM311 39q0 -17 -11 -28t-28 -11h-98q-16 0 -27.5 11t-11.5 28v192q0 16 11 27.5t28 11.5h98q16 0 27.5 -11t11.5 -28v-192z" />
    <glyph glyph-name="quotedbl" unicode="&#x22;" horiz-adv-x="741" 
d="M682 1518q0 -11 -2 -17l-119 -387q-6 -21 -15 -30t-24 -9h-96q-18 0 -18 21q0 12 2 18l94 387q8 39 41 39h114q23 0 23 -22zM334 1518q0 -11 -2 -17l-119 -387q-6 -21 -15 -30t-24 -9h-96q-19 0 -19 21q0 12 2 18l95 387q8 39 41 39h114q23 0 23 -22z" />
    <glyph glyph-name="numbersign" unicode="#" horiz-adv-x="1351" 
d="M1249 1049v-5l-4 -45q-2 -17 -13 -27.5t-28 -10.5h-198l-37 -414h200q14 0 23.5 -11.5t9.5 -27.5v-4l-4 -43q-2 -17 -13 -28t-28 -11h-201l-32 -383q-2 -16 -11.5 -27.5t-25.5 -11.5h-90q-14 0 -23.5 10.5t-9.5 24.5v4l33 383h-318l-33 -383q-2 -16 -12 -27.5t-24 -11.5
h-93q-13 0 -22.5 10.5t-9.5 24.5v4l32 383h-190q-14 0 -23.5 11.5t-9.5 27.5v4l4 43q2 17 13 28t28 11h191l37 414h-193q-15 0 -24 11t-9 27v5l4 45q2 17 13 27.5t28 10.5h191l35 396q2 15 13 27t26 12h92q13 0 21.5 -10.5t8.5 -24.5v-4l-34 -396h317l35 396q2 16 12.5 27.5
t26.5 11.5h90q14 0 22.5 -10.5t8.5 -24.5v-4l-35 -396h201q14 0 23 -11t9 -27zM846 961h-318l-36 -414h317z" />
    <glyph glyph-name="dollar" unicode="$" 
d="M1081 395q0 -55 -10.5 -104.5t-36.5 -99.5t-67.5 -88.5t-107.5 -67.5t-152 -41v-193q0 -17 -12 -29t-29 -12h-97q-17 0 -29 12t-12 29v185q-146 2 -292 28q-25 4 -32 11.5t-7 25.5v84q0 33 34 33h7q211 -18 337 -18q173 0 242.5 63.5t69.5 181.5q0 75 -51.5 130.5
t-194.5 144.5l-199 121q-147 90 -214.5 177t-67.5 206q0 311 368 356v176q0 17 12 29t29 12h97q17 0 29 -12t12 -29v-170q153 -6 299 -27q34 -7 34 -34v-89q0 -15 -9.5 -23.5t-24.5 -8.5h-5q-270 18 -352 18q-162 0 -231.5 -44t-69.5 -154q0 -69 49.5 -121t173.5 -127
l189 -113q177 -105 249 -199.5t72 -218.5z" />
    <glyph glyph-name="percent" unicode="%" horiz-adv-x="1626" 
d="M1534 317q0 -164 -71.5 -247.5t-202.5 -83.5q-132 0 -204.5 83.5t-72.5 247.5v191q0 165 72.5 248.5t204.5 83.5t203 -83t71 -249v-191zM1331 1509q0 -6 -10 -26l-856 -1450q-13 -23 -22 -32t-23 -9h-101q-20 0 -20 16q0 14 8 25l856 1450q14 23 23 31t24 8h105
q16 0 16 -13zM643 1016q0 -165 -71.5 -248.5t-202.5 -83.5q-132 0 -204.5 84t-72.5 248v190q0 165 72.5 247.5t204.5 82.5t203 -82.5t71 -247.5v-190zM1407 317v191q0 215 -147 215q-150 0 -150 -215v-191q0 -215 150 -215q147 0 147 215zM516 1016v190q0 215 -147 215
q-150 0 -150 -215v-190q0 -215 150 -215q147 0 147 215z" />
    <glyph glyph-name="ampersand" unicode="&#x26;" horiz-adv-x="1388" 
d="M1313 23q0 -10 -7.5 -16.5t-15.5 -6.5h-141q-19 0 -33 14l-102 111q-162 -139 -404 -139q-99 0 -184.5 20t-158.5 62t-115.5 117t-42.5 175v17q0 124 67 213t227 190l-14 17q-133 152 -173 235t-40 162v16q0 160 114 243t316 83q116 0 206.5 -35.5t146 -110.5t55.5 -180
v-16q0 -108 -64 -194t-250 -212l-57 -38l371 -400q80 143 80 361v28q0 33 32 33h88q35 0 35 -33v-28q0 -281 -129 -471l183 -195q10 -10 10 -22zM844 1194v16q0 97 -63.5 143t-174.5 46q-262 0 -262 -189v-16q0 -63 30.5 -123t143.5 -184l21 -23l69 43q147 91 191.5 146
t44.5 141zM915 231l-407 437q-123 -77 -167 -137t-44 -154v-17q0 -117 88.5 -175t224.5 -58q183 0 305 104z" />
    <glyph glyph-name="quotesingle" unicode="'" horiz-adv-x="393" 
d="M334 1518q0 -11 -2 -17l-119 -387q-6 -21 -15 -30t-24 -9h-96q-19 0 -19 21q0 12 2 18l95 387q8 39 41 39h114q23 0 23 -22z" />
    <glyph glyph-name="parenleft" unicode="(" horiz-adv-x="624" 
d="M573 -412q0 -16 -20 -16h-96q-29 0 -47 22q-135 164 -211 419.5t-76 529.5v26q0 274 76 529.5t211 419.5q18 22 47 22h96q20 0 20 -16q0 -12 -6 -21q-264 -388 -264 -934v-26q0 -546 264 -934q6 -9 6 -21z" />
    <glyph glyph-name="parenright" unicode=")" horiz-adv-x="624" 
d="M530 543q0 -274 -75.5 -530t-210.5 -419q-18 -22 -47 -22h-97q-20 0 -20 16q0 12 6 21q264 388 264 934v26q0 546 -264 934q-6 9 -6 21q0 16 20 16h97q29 0 47 -22q135 -163 210.5 -419t75.5 -530v-26z" />
    <glyph glyph-name="asterisk" unicode="*" horiz-adv-x="952" 
d="M858 1225q0 -20 -29 -31l-256 -80l158 -217q10 -13 10 -27q0 -13 -12 -22l-49 -37q-9 -6 -16 -6q-18 0 -31 20l-156 217l-155 -217q-13 -20 -31 -20q-8 0 -17 6l-51 37q-12 9 -12 22q0 14 10 27l160 217l-254 80q-31 12 -31 31q0 2 1 5t1 5l19 59q6 21 26 21q7 0 19 -4
l254 -84v268q0 39 30 39h62q31 0 31 -39l-2 -268l256 84q12 4 18 4q21 0 27 -21l18 -59q2 -4 2 -10z" />
    <glyph glyph-name="plus" unicode="+" 
d="M1085 760q0 -33 -41 -33h-352v-350q0 -41 -33 -41h-81q-33 0 -33 41v350h-350q-41 0 -41 33v82q0 32 41 32h350v353q0 41 33 41h81q33 0 33 -41v-353h352q41 0 41 -32v-82z" />
    <glyph glyph-name="comma" unicode="," horiz-adv-x="438" 
d="M346 242q0 -5 -4 -17l-154 -387q-6 -16 -9.5 -23t-10.5 -11.5t-18 -4.5h-84q-25 0 -25 25q0 10 2 14l117 387q6 21 15 30t26 9h118q27 0 27 -22z" />
    <glyph glyph-name="hyphen" unicode="-" horiz-adv-x="681" 
d="M584 559q0 -15 -11 -25t-28 -10h-408q-39 0 -39 35v80q0 15 11 26t28 11h408q17 0 28 -10t11 -27v-80z" />
    <glyph glyph-name="period" unicode="." horiz-adv-x="438" 
d="M307 43q0 -17 -11 -29t-28 -12h-98q-15 0 -27 12t-12 29v190q0 16 11 27.5t28 11.5h98q16 0 27.5 -11t11.5 -28v-190z" />
    <glyph glyph-name="slash" unicode="/" horiz-adv-x="727" 
d="M682 1493q0 -8 -2 -12l-463 -1440q-12 -41 -37 -41h-104q-13 0 -21 9t-8 20q0 8 2 12l465 1440q12 41 35 41h104q13 0 21 -9t8 -20z" />
    <glyph glyph-name="zero" unicode="0" 
d="M1122 623q0 -637 -501 -637q-241 0 -372.5 154.5t-131.5 482.5v276q0 328 131.5 482.5t372.5 154.5q501 0 501 -637v-276zM936 623v276q0 479 -315 479q-316 0 -316 -479v-276q0 -480 316 -480q315 0 315 480z" />
    <glyph glyph-name="one" unicode="1" 
d="M1024 0h-840q-18 0 -29.5 10t-11.5 27v90q0 17 11.5 26t29.5 9h326v1167l-322 -135q-45 -17 -45 16v105q0 10 4.5 14.5t16.5 11.5l366 168q26 13 43 13h84q16 0 27.5 -11t11.5 -28v-1321h328q18 0 29.5 -9t11.5 -26v-90q0 -17 -11.5 -27t-29.5 -10z" />
    <glyph glyph-name="two" unicode="2" 
d="M1077 1169q0 -120 -60.5 -208.5t-205.5 -186.5l-197 -133q-167 -113 -226.5 -206.5t-59.5 -229.5v-43h690q18 0 29.5 -9t11.5 -26v-90q0 -17 -11.5 -27t-29.5 -10h-813q-17 0 -29 11t-12 28v166q0 164 74.5 296t238.5 242l207 140q130 88 170.5 141.5t40.5 144.5
q0 111 -71.5 161t-235.5 50q-147 0 -363 -30h-8q-33 0 -33 36v72q0 29 39 37q158 41 365 41q250 0 369.5 -89.5t119.5 -277.5z" />
    <glyph glyph-name="three" unicode="3" 
d="M1067 424q0 -221 -137 -329.5t-373 -108.5q-171 0 -346 41q-16 3 -27.5 14t-11.5 25v69q0 17 9.5 26t25.5 9h6q223 -29 344 -29q167 0 243.5 67.5t76.5 215.5v43q0 44 -12 85.5t-38 80t-75 61.5t-115 23h-373q-17 0 -28 10t-11 27v71q0 17 11 28t28 11h373q70 0 120 22
t74.5 60t35 77t10.5 85v29q0 127 -74.5 185t-245.5 58q-29 0 -59 -1.5t-52.5 -3t-56.5 -5t-52.5 -5.5t-61 -7.5t-62.5 -7.5h-6q-35 0 -35 34v72q0 13 12 24.5t27 14.5q201 41 346 41q119 0 209 -20t159.5 -65.5t105.5 -124t36 -189.5v-29q0 -104 -50.5 -188.5t-144.5 -131.5
q69 -34 114.5 -89t63 -112t17.5 -120v-43z" />
    <glyph glyph-name="four" unicode="4" 
d="M1161 442q0 -17 -10.5 -26.5t-28.5 -9.5h-178v-365q0 -16 -9.5 -28.5t-25.5 -12.5h-118q-17 0 -26 11.5t-9 29.5v365h-592q-46 0 -65 17.5t-19 61.5v78q0 43 24 76l607 850q21 33 59 33h121q53 0 53 -45v-916h178q16 0 27.5 -10t11.5 -27v-82zM758 561v701q0 12 -8 12h-2
q-9 0 -17 -12l-473 -672q-6 -9 -6 -17q0 -12 16 -12h490z" />
    <glyph glyph-name="five" unicode="5" 
d="M1081 463q0 -227 -136.5 -352t-385.5 -125q-209 0 -360 37q-20 5 -29.5 13t-9.5 27v76q0 31 30 31h11q163 -29 358 -29q334 0 334 322v31q0 151 -99 212.5t-329 61.5h-246q-13 0 -23 10.5t-10 24.5v2l58 682q1 15 13.5 25t27.5 10h704q18 0 29.5 -9t11.5 -26v-90
q0 -33 -41 -33h-588l-32 -442h96q118 0 210.5 -13t170.5 -43.5t128.5 -79t78.5 -122t28 -170.5v-31z" />
    <glyph glyph-name="six" unicode="6" 
d="M1118 504q0 -248 -126 -383t-374 -135q-236 0 -365.5 144t-129.5 437v359q0 321 132.5 465.5t401.5 144.5q190 0 353 -35q47 -11 47 -39v-80q0 -36 -37 -36q-2 0 -6 1t-6 1q-166 32 -351 32q-92 0 -157 -22.5t-102.5 -59t-58 -98.5t-26.5 -123t-6 -151v-23q191 41 309 41
q84 0 155 -12.5t136.5 -43.5t111 -78.5t72.5 -122.5t27 -171v-12zM934 504v12q0 80 -26 137t-73 88t-100.5 44.5t-118.5 13.5q-157 0 -309 -37v-195q0 -123 20 -207.5t61.5 -133t96.5 -69t133 -20.5q152 0 234 85t82 282z" />
    <glyph glyph-name="seven" unicode="7" 
d="M1092 1393q0 -48 -27 -107l-590 -1255q-15 -31 -45 -31h-123q-14 0 -22.5 9t-8.5 22q0 8 7 22l618 1286q2 2 2 9q0 14 -14 14h-699q-40 0 -40 35v86q0 15 11.5 27t28.5 12h748q81 0 117.5 -35.5t36.5 -93.5z" />
    <glyph glyph-name="eight" unicode="8" 
d="M1128 424q0 -109 -39 -194t-107.5 -137.5t-157.5 -79.5t-193 -27h-21q-104 0 -193 27t-157.5 79.5t-107.5 137.5t-39 194v39q0 97 52 188.5t146 143.5q-95 49 -144.5 132.5t-49.5 186.5v19q0 103 37 181.5t104.5 126.5t155.5 71.5t196 23.5h21q108 0 196 -23.5
t155.5 -71.5t104.5 -126.5t37 -181.5v-19q0 -103 -49.5 -186.5t-144.5 -132.5q94 -52 146 -143.5t52 -188.5v-39zM944 1114v19q0 123 -80 187t-233 64h-21q-153 0 -233 -64t-80 -187v-19q0 -105 64 -175.5t196 -70.5h127q132 0 196 70.5t64 175.5zM942 424v39q0 46 -14.5 90
t-43.5 82.5t-81 62t-119 23.5h-127q-67 0 -119 -23.5t-81 -62t-43.5 -82.5t-14.5 -90v-39q0 -134 80 -208.5t231 -74.5h21q151 0 231 74.5t80 208.5z" />
    <glyph glyph-name="nine" unicode="9" 
d="M1100 596q0 -321 -133 -465.5t-402 -144.5q-193 0 -352 34q-24 5 -36.5 13.5t-12.5 25.5v80q0 18 10.5 27.5t26.5 9.5q2 0 6 -1t6 -1q172 -33 350 -33q67 0 119.5 11.5t89 31t63 52.5t42 68t24 85t11.5 97t3 110v22q-191 -40 -309 -40q-84 0 -155.5 12.5t-137 43.5
t-111.5 78.5t-73 122.5t-27 171v12q0 247 126.5 382.5t373.5 135.5q237 0 367.5 -144.5t130.5 -437.5v-358zM913 760l2 194q0 123 -20 207.5t-61.5 133t-96.5 69t-133 20.5q-154 0 -235.5 -84.5t-81.5 -281.5v-12q0 -80 26 -137t72.5 -88t100 -44.5t118.5 -13.5
q157 0 309 37z" />
    <glyph glyph-name="colon" unicode=":" horiz-adv-x="448" 
d="M313 895q0 -17 -12 -28t-29 -11h-96q-16 0 -28.5 11t-12.5 28v190q0 16 12 28.5t29 12.5h96q16 0 28.5 -12t12.5 -29v-190zM313 39q0 -17 -12 -28t-29 -11h-96q-16 0 -28.5 11t-12.5 28v192q0 15 12 27t29 12h96q16 0 28.5 -11t12.5 -28v-192z" />
    <glyph glyph-name="semicolon" unicode=";" horiz-adv-x="448" 
d="M313 895q0 -17 -11 -28t-28 -11h-100q-16 0 -27.5 11t-11.5 28v190q0 16 11 28.5t28 12.5h100q15 0 27 -12t12 -29v-190zM322 240q0 -2 -5 -17l-153 -387q-6 -16 -9.5 -23.5t-11 -12.5t-18.5 -5h-82q-25 0 -25 27q0 10 2 14l117 387q6 21 15 30t26 9h117q27 0 27 -22z
" />
    <glyph glyph-name="less" unicode="&#x3c;" 
d="M987 307q0 -20 -24 -20h-119q-32 0 -64 26l-493 418q-37 30 -37 70q0 39 37 69l493 418q34 27 64 27h119q24 0 24 -21q0 -17 -20 -34l-537 -459l537 -459q20 -17 20 -35z" />
    <glyph glyph-name="equal" unicode="=" 
d="M1055 987q0 -33 -41 -33h-789q-41 0 -41 33v82q0 33 41 33h789q41 0 41 -33v-82zM1055 535q0 -33 -41 -33h-789q-41 0 -41 33v81q0 33 41 33h789q41 0 41 -33v-81z" />
    <glyph glyph-name="greater" unicode="&#x3e;" 
d="M989 801q0 -40 -37 -70l-493 -418q-32 -26 -64 -26h-119q-24 0 -24 20q0 18 20 35l537 459l-537 459q-20 17 -20 34q0 21 24 21h119q30 0 64 -27l493 -418q37 -30 37 -69z" />
    <glyph glyph-name="question" unicode="?" horiz-adv-x="913" 
d="M791 1202q0 -77 -38 -150.5t-149 -199.5l-92 -104q-47 -54 -64.5 -76t-31 -56.5t-13.5 -78.5v-101q0 -17 -12 -28t-29 -11h-90q-16 0 -27.5 11t-11.5 28v101q0 97 27.5 158.5t108.5 150.5l94 104q75 83 101 136t26 116v25q0 80 -50 113.5t-159 33.5q-111 0 -277 -18h-6
q-30 0 -30 35v71q0 22 5.5 32.5t28.5 14.5q142 27 279 27q410 0 410 -309v-25zM406 39q0 -17 -11 -28t-28 -11h-99q-16 0 -28.5 11t-12.5 28v190q0 16 12 28.5t29 12.5h99q15 0 27 -12t12 -29v-190z" />
    <glyph glyph-name="at" unicode="@" horiz-adv-x="1570" 
d="M1491 750q0 -360 -193 -508q-173 -131 -553 -131q-153 0 -241 75t-88 209q0 25 2 37l22 240q15 157 111 241t262 84q116 0 262 -30q23 -5 33 -14t10 -29v-9l-61 -641q75 11 129 40t86.5 69t51.5 100t25.5 122t6.5 145q0 98 -32 183t-93 151t-158.5 103.5t-220.5 37.5
q-263 0 -420.5 -141t-181.5 -379l-31 -312q-4 -46 -4 -65q0 -194 132 -315.5t384 -121.5q111 0 295 15h2q8 0 13 -4t5 -8l1 -3v-65q0 -26 -33 -29q-141 -16 -285 -16q-293 0 -469 151t-176 398q0 43 2 63l31 320q27 284 223 457t518 173q153 0 276 -49.5t199.5 -133
t117 -189t40.5 -221.5zM936 838q-86 12 -139 12q-89 0 -133.5 -44t-53.5 -138l-22 -234q-2 -12 -2 -35q0 -72 40 -106.5t128 -34.5h43q59 0 88 4z" />
    <glyph glyph-name="A" unicode="A" horiz-adv-x="1296" 
d="M1237 33q0 -14 -9 -23.5t-26 -9.5h-121q-26 0 -34 31l-134 471h-530l-131 -471q-3 -12 -14 -21.5t-23 -9.5h-121q-15 0 -25 9.5t-10 23.5q0 10 2 14l379 1333q24 85 81.5 120.5t127.5 35.5q69 0 126 -34.5t81 -119.5l379 -1335q2 -4 2 -14zM874 664l-186 673
q-10 37 -39 37q-31 0 -41 -37l-186 -673h452z" />
    <glyph glyph-name="B" unicode="B" horiz-adv-x="1261" 
d="M1159 420q0 -434 -598 -434q-217 0 -334 18q-36 5 -51.5 21.5t-15.5 54.5v1364q0 70 65 76q136 16 326 16q600 0 600 -395v-33q0 -114 -57.5 -198t-161.5 -124q106 -37 166.5 -125t60.5 -206v-35zM965 1108v33q0 58 -19.5 100t-53.5 68.5t-88 42t-113.5 21t-139.5 5.5
q-32 0 -203 -6v-508h316q301 0 301 244zM973 420v35q0 54 -15 98t-48.5 82t-96 59t-149.5 21h-316v-563q24 -1 98 -5t115 -4q101 0 172.5 12.5t127.5 43t84 85.5t28 136z" />
    <glyph glyph-name="C" unicode="C" horiz-adv-x="1116" 
d="M1044 53q0 -34 -40 -41q-140 -26 -340 -26q-81 0 -153.5 17.5t-145 62.5t-125 114t-85 181.5t-32.5 256.5v285q0 145 32.5 258t85 182t125 114t145 62t153.5 17q132 0 344 -33q32 -4 32 -26v-105q0 -22 -24 -22h-6q-222 18 -344 18q-79 0 -141.5 -24.5t-112 -77
t-76.5 -144.5t-27 -219v-285q0 -125 27 -217t76.5 -145t112.5 -77.5t141 -24.5q141 0 338 16h8q32 0 32 -33v-84z" />
    <glyph glyph-name="D" unicode="D" horiz-adv-x="1312" 
d="M1196 623q0 -320 -164 -478.5t-457 -158.5q-254 0 -372 20q-43 6 -43 51v1407q0 46 43 52q118 20 372 20q294 0 457.5 -157.5t163.5 -479.5v-276zM1010 623v276q0 109 -22 192t-60 136.5t-94 87.5t-119 47.5t-140 13.5q-125 0 -227 -6v-1220q83 -5 227 -5
q97 0 172.5 23.5t136.5 76.5t93.5 148.5t32.5 229.5z" />
    <glyph glyph-name="E" unicode="E" horiz-adv-x="1128" 
d="M1016 25q0 -9 -6 -18.5t-15 -10.5q-97 -10 -399 -10q-220 0 -328 90.5t-108 290.5v788q0 200 108 290.5t328 90.5q270 0 399 -12q9 -1 15 -10.5t6 -18.5v-102q0 -11 -6.5 -18t-16.5 -7h-395q-108 0 -162.5 -22t-72 -64.5t-17.5 -126.5v-285h629q17 0 29 -12t12 -29v-77
q0 -17 -12 -29t-29 -12h-629v-344q0 -84 17.5 -126.5t72 -64.5t162.5 -22h395q10 0 16.5 -7t6.5 -18v-104z" />
    <glyph glyph-name="F" unicode="F" horiz-adv-x="1128" 
d="M1016 752q0 -17 -12 -29t-29 -12h-629v-670q0 -17 -12 -29t-29 -12h-104q-17 0 -29 12t-12 29v1114q0 200 108 290.5t328 90.5q270 0 399 -12q9 -1 15 -10.5t6 -18.5v-102q0 -11 -6.5 -18t-16.5 -7h-395q-108 0 -162.5 -22t-72 -64.5t-17.5 -126.5v-285h629q17 0 29 -12
t12 -29v-77z" />
    <glyph glyph-name="G" unicode="G" horiz-adv-x="1253" 
d="M1094 61q0 -17 -10 -29.5t-27 -15.5q-187 -30 -408 -30q-80 0 -153.5 20.5t-143 69t-120.5 120t-82 181.5t-31 246v274q0 144 32.5 257t85 183.5t125.5 116.5t148 64t158 18q200 0 389 -29q35 -4 35 -30v-103q0 -20 -27 -20h-8q-169 14 -389 14q-60 0 -111 -13
t-98.5 -46.5t-80.5 -86t-53 -135.5t-20 -190v-274q0 -123 26.5 -215.5t74.5 -147.5t109 -81.5t134 -26.5q111 0 258 12v586q0 18 10 29.5t27 11.5h111q15 0 27 -12t12 -29v-689z" />
    <glyph glyph-name="H" unicode="H" horiz-adv-x="1392" 
d="M1233 41q0 -17 -12 -29t-29 -12h-105q-17 0 -28.5 12t-11.5 29v680h-701v-680q0 -17 -12 -29t-29 -12h-104q-17 0 -29 12t-12 29v1440q0 17 12 29t29 12h104q17 0 29 -12t12 -29v-594h701v594q0 17 11.5 29t28.5 12h105q17 0 29 -12t12 -29v-1440z" />
    <glyph glyph-name="I" unicode="I" horiz-adv-x="546" 
d="M367 41q0 -16 -10.5 -28.5t-26.5 -12.5h-113q-15 0 -26 12t-11 29v1442q0 16 10 27.5t27 11.5h113q15 0 26 -11t11 -28v-1442z" />
    <glyph glyph-name="J" unicode="J" horiz-adv-x="526" 
d="M367 -76q0 -150 -75.5 -221.5t-242.5 -71.5q-31 0 -64 6t-44 11q-13 6 -13 22v76q0 17 11.5 26t29.5 9h80q78 0 104.5 32t26.5 111v1559q0 15 12 27t27 12h109q15 0 27 -12t12 -27v-1559z" />
    <glyph glyph-name="K" unicode="K" horiz-adv-x="1243" 
d="M1155 20q0 -20 -27 -20h-159q-28 0 -45 20l-578 703v-682q0 -16 -10.5 -28.5t-26.5 -12.5h-112q-15 0 -26 12t-11 29v1442q0 16 11 27.5t28 11.5h108q16 0 27.5 -11t11.5 -28v-662l590 682q19 19 41 19h147q29 0 29 -23q0 -12 -8 -20l-617 -697l617 -737q10 -10 10 -25z
" />
    <glyph glyph-name="L" unicode="L" horiz-adv-x="1052" 
d="M1016 33q0 -9 -6 -18.5t-15 -10.5q-119 -18 -399 -18q-52 0 -93.5 3t-88 13.5t-82 27t-69.5 45.5t-55.5 68.5t-34.5 96t-13 127.5v1114q0 17 12 29t29 12h104q17 0 29 -12t12 -29v-1114q0 -84 17.5 -126.5t72 -64.5t162.5 -22h395q10 0 16.5 -7t6.5 -18v-96z" />
    <glyph glyph-name="M" unicode="M" horiz-adv-x="1558" 
d="M1401 41q0 -17 -12 -29t-29 -12h-100q-17 0 -29 12t-12 29v1214q0 7 -2 7q-3 0 -5 -5l-292 -606q-16 -32 -36 -45.5t-57 -13.5h-94q-37 0 -56.5 13.5t-35.5 45.5l-293 606q-2 5 -4 5t-2 -7v-1214q0 -17 -12 -29t-29 -12h-100q-17 0 -29 12t-12 29v1421q0 25 17 42.5
t42 17.5h133q28 0 42.5 -7.5t23.5 -27.5l338 -703q10 -22 24 -22q15 0 25 22l338 703q9 20 23 27.5t42 7.5h133q25 0 42.5 -17.5t17.5 -42.5v-1421z" />
    <glyph glyph-name="N" unicode="N" horiz-adv-x="1392" 
d="M1233 59q0 -25 -17 -42t-42 -17h-127q-49 0 -66 33l-633 1202q-3 6 -6 6q-2 0 -2 -6v-1196q0 -15 -11 -27t-26 -12h-106q-37 0 -37 25v1439q0 25 17 41.5t42 16.5h113q41 0 56 -8t28 -33l628 -1196l5 -6q2 0 2 6v1198q0 15 10.5 27t25.5 12h109q17 0 27 -11.5t10 -27.5
v-1424z" />
    <glyph glyph-name="O" unicode="O" horiz-adv-x="1353" 
d="M1231 629q0 -167 -40.5 -292t-115.5 -201t-174 -113t-223 -37t-223.5 37t-174.5 113t-116 201t-41 292v264q0 167 41 292t116 201t174.5 113t223.5 37t223 -37t174 -113t115.5 -201t40.5 -292v-264zM1042 629v264q0 249 -94 362t-270 113q-367 0 -367 -475v-264
q0 -475 367 -475q364 0 364 475z" />
    <glyph glyph-name="P" unicode="P" horiz-adv-x="1214" 
d="M1122 1065q0 -459 -573 -459q-72 0 -205 10v-575q0 -16 -10.5 -28.5t-26.5 -12.5h-110q-15 0 -26 12t-11 29v1427q0 46 49 52q141 16 340 16q573 0 573 -444v-27zM936 1065v27q0 153 -93 219.5t-294 66.5q-107 0 -205 -8v-600q188 -8 205 -8q209 0 298 71t89 232z" />
    <glyph glyph-name="Q" unicode="Q" horiz-adv-x="1353" 
d="M1231 629q0 -297 -124.5 -455t-340.5 -184v-88q0 -76 24 -97.5t103 -21.5h121q45 0 45 -33v-69q0 -50 -166 -50q-160 0 -233.5 57.5t-73.5 211.5v92q-215 28 -339 185t-124 452v264q0 167 41 292t116 201t174.5 113t223.5 37t223 -37t174 -113t115.5 -201t40.5 -292v-264
zM1042 629v264q0 249 -94 362t-270 113q-367 0 -367 -475v-264q0 -475 367 -475q364 0 364 475z" />
    <glyph glyph-name="R" unicode="R" horiz-adv-x="1280" 
d="M1200 27q0 -11 -7 -19t-19 -8h-132q-22 0 -32 4t-21 23l-366 610h-19h-35q-61 0 -225 6v-602q0 -16 -10.5 -28.5t-26.5 -12.5h-110q-15 0 -26 12t-11 29v1434q0 22 10.5 32t38.5 13q141 16 360 16q574 0 574 -440v-15q0 -165 -87.5 -269.5t-234.5 -143.5l373 -623
q6 -9 6 -18zM958 1081v15q0 149 -95 210.5t-294 61.5q-176 0 -225 -6v-561q180 -4 225 -4q199 0 294 62.5t95 221.5z" />
    <glyph glyph-name="S" unicode="S" horiz-adv-x="1126" 
d="M1024 395q0 -63 -13.5 -118.5t-49 -110t-91 -93.5t-145.5 -63t-207 -24q-160 0 -340 28q-25 4 -32 11.5t-7 25.5v82q0 16 10 24.5t25 8.5h6q141 -12 338 -12q174 0 242.5 62t68.5 179q0 75 -51 131t-194 144l-199 121q-148 90 -215.5 177.5t-67.5 205.5q0 183 126 272.5
t364 89.5q194 0 356 -25q35 -7 35 -34v-88q0 -15 -10 -24t-25 -9h-4q-180 12 -352 12q-163 0 -232 -42t-69 -152q0 -69 49.5 -121t173.5 -127l188 -113q177 -105 249.5 -199.5t72.5 -218.5z" />
    <glyph glyph-name="T" unicode="T" horiz-adv-x="1208" 
d="M1137 1395q0 -15 -11 -24t-28 -9h-400v-1321q0 -16 -10 -28.5t-26 -12.5h-113q-15 0 -26 12t-11 29v1321h-399q-41 0 -41 33v90q0 15 12 26t29 11h985q17 0 28 -10t11 -27v-90z" />
    <glyph glyph-name="U" unicode="U" horiz-adv-x="1355" 
d="M1202 553q0 -287 -134.5 -427t-389.5 -140t-389.5 140t-134.5 427v930q0 16 11 27.5t28 11.5h110q16 0 27.5 -11t11.5 -28v-930q0 -207 76 -307.5t260 -100.5t260 100t76 308v930q0 16 11 27.5t28 11.5h110q16 0 27.5 -11t11.5 -28v-930z" />
    <glyph glyph-name="V" unicode="V" horiz-adv-x="1316" 
d="M1247 1487q0 -8 -2 -12l-377 -1334q-44 -155 -209 -155q-164 0 -208 155l-379 1334q-2 4 -2 12q0 15 10.5 25t25.5 10h119q12 0 23 -9.5t14 -21.5l356 -1305q6 -23 15 -33t26 -10q27 0 39 43l359 1305q3 12 13 21.5t22 9.5h120q15 0 25 -10t10 -25z" />
    <glyph glyph-name="W" unicode="W" horiz-adv-x="1689" 
d="M1620 1487v-6l-227 -1385q-10 -59 -41.5 -81.5t-85.5 -22.5h-88q-42 0 -73.5 28t-43.5 74l-201 758q-3 13 -5 15.5t-7 2.5h-2h-2q-4 0 -5.5 -0.5t-3.5 -4.5t-4 -13l-202 -758q-12 -46 -43.5 -74t-73.5 -28h-86q-54 0 -85.5 22.5t-41.5 81.5l-227 1385v6q0 15 9.5 25
t24.5 10h119q13 0 22.5 -9t12.5 -26l199 -1305q1 -5 2 -10.5t1 -8.5t1 -6t2.5 -4t3.5 -1q7 0 14 30l201 758q21 82 96 82h131q76 0 97 -82l200 -758q7 -30 15 -30q2 0 3.5 1t2.5 4t1 6t1 8.5t2 10.5l199 1305q6 35 34 35h119q15 0 25 -10t10 -25z" />
    <glyph glyph-name="X" unicode="X" horiz-adv-x="1323" 
d="M1237 29q0 -12 -8.5 -20.5t-24.5 -8.5h-129q-15 0 -23.5 6.5t-19.5 24.5l-375 596l-366 -596q-19 -31 -43 -31h-121q-16 0 -24.5 9t-8.5 22q0 11 6 20l455 723l-451 699q-6 9 -6 20q0 13 8 21t23 8h133q25 0 37 -21l369 -583l356 583q14 21 39 21h121q14 0 23.5 -9
t9.5 -22q0 -7 -7 -18l-440 -703l461 -719q6 -9 6 -22z" />
    <glyph glyph-name="Y" unicode="Y" horiz-adv-x="1193" 
d="M1124 1493q0 -11 -6 -23l-317 -712q-49 -108 -111 -135v-582q0 -15 -11 -28t-26 -13h-112q-15 0 -26 13t-11 28v582q-60 23 -111 135l-315 712q-6 12 -6 23q0 12 9.5 20.5t24.5 8.5h125q10 0 21 -9t16 -20l283 -664q23 -53 47 -53q12 0 22.5 10.5t24.5 42.5l285 664
q12 29 35 29h125q15 0 24.5 -8.5t9.5 -20.5z" />
    <glyph glyph-name="Z" unicode="Z" horiz-adv-x="1222" 
d="M1114 37q0 -15 -12 -26t-29 -11h-788q-99 0 -134.5 29t-35.5 110q0 73 30 119l734 1067q6 9 6 16q0 15 -21 15h-680q-16 0 -28.5 9.5t-12.5 25.5v96q0 15 12 25t29 10h729q93 0 133.5 -28t40.5 -108q0 -70 -32 -120l-731 -1067q-7 -11 -7 -19q0 -12 21 -12h735
q18 0 29.5 -9t11.5 -26v-96z" />
    <glyph glyph-name="bracketleft" unicode="[" horiz-adv-x="669" 
d="M621 -356q0 -17 -12 -29t-29 -12h-381q-15 0 -25 12t-10 27v1841q0 15 10 27t25 12h381q17 0 29 -12t12 -29v-68q0 -17 -12 -29t-29 -12h-234v-1620h234q17 0 29 -12t12 -29v-67z" />
    <glyph glyph-name="backslash" unicode="\" horiz-adv-x="727" 
d="M682 29q0 -11 -8 -20t-21 -9h-104q-25 0 -37 41l-463 1440q-2 4 -2 12q0 11 8 20t21 9h104q23 0 35 -41l465 -1440q2 -4 2 -12z" />
    <glyph glyph-name="bracketright" unicode="]" horiz-adv-x="669" 
d="M506 -358q0 -15 -10 -27t-25 -12h-381q-17 0 -29 12t-12 29v67q0 17 12 29t29 12h234v1620h-234q-17 0 -29 12t-12 29v68q0 17 12 29t29 12h381q15 0 25 -12t10 -27v-1841z" />
    <glyph glyph-name="asciicircum" unicode="^" 
d="M1034 1171q0 -18 -22 -18h-123q-14 0 -24 5t-16 10.5t-18 21.5l-210 246l-211 -246q-12 -16 -18 -21.5t-16 -10.5t-24 -5h-123q-22 0 -22 18q0 12 8 23l236 305q18 23 29 30t32 7h217q21 0 32.5 -7t29.5 -30l235 -305q8 -11 8 -23z" />
    <glyph glyph-name="underscore" unicode="_" horiz-adv-x="1011" 
d="M1075 -184q0 -33 -41 -33h-1054q-41 0 -41 33v51q0 33 41 33h1054q41 0 41 -33v-51z" />
    <glyph glyph-name="grave" unicode="`" horiz-adv-x="761" 
d="M498 1290q0 -14 -19 -14h-110q-6 0 -10.5 1t-7.5 2t-7.5 5t-6 5.5t-7.5 8.5t-8 9l-232 258q-8 8 -8 16q0 14 22 14h136q18 0 27.5 -6t23.5 -24l198 -254q9 -9 9 -21z" />
    <glyph glyph-name="a" unicode="a" horiz-adv-x="1062" 
d="M924 41q0 -17 -12 -29t-29 -12h-95q-17 0 -28.5 12t-11.5 29v45q-172 -100 -316 -100q-69 0 -126 16.5t-105.5 52.5t-75.5 103t-27 159v25q0 171 113.5 251.5t380.5 80.5h151v82q0 128 -49 179.5t-170 51.5q-149 0 -313 -16h-10q-37 0 -37 33v71q0 33 43 39
q162 27 317 27q208 0 304 -98.5t96 -286.5v-715zM743 215v330h-151q-182 0 -247.5 -44.5t-65.5 -156.5v-25q0 -105 46.5 -145.5t141.5 -40.5q124 0 276 82z" />
    <glyph glyph-name="b" unicode="b" horiz-adv-x="1107" 
d="M1006 492q0 -238 -111.5 -372t-335.5 -134q-204 0 -377 34q-26 4 -34.5 14.5t-8.5 33.5v1433q0 16 10 27.5t27 11.5h105q15 0 26.5 -11t11.5 -28v-381q117 21 240 21q221 0 334 -129t113 -373v-147zM825 492v147q0 172 -60.5 258t-205.5 86q-161 0 -240 -14v-813
q152 -13 240 -13q146 0 206 86.5t60 262.5z" />
    <glyph glyph-name="c" unicode="c" horiz-adv-x="925" 
d="M836 53q0 -21 -8.5 -31t-32.5 -14q-125 -22 -256 -22q-207 0 -322 134t-115 363v160q0 229 114.5 363.5t322.5 134.5q126 0 256 -23q24 -4 32.5 -13.5t8.5 -31.5v-74q0 -14 -10 -22t-25 -8h-8q-126 14 -254 14q-256 0 -256 -340v-160q0 -340 256 -340q119 0 254 15h8
q14 0 24.5 -8.5t10.5 -22.5v-74z" />
    <glyph glyph-name="d" unicode="d" horiz-adv-x="1107" 
d="M969 68q0 -22 -8.5 -33t-34.5 -15q-173 -34 -377 -34q-223 0 -335 134t-112 372v147q0 244 112.5 373t334.5 129q119 0 239 -21v381q0 16 11 27.5t28 11.5h105q15 0 26 -11t11 -28v-1433zM788 156v813q-79 14 -239 14q-145 0 -205.5 -86t-60.5 -258v-147
q0 -176 60 -262.5t206 -86.5q87 0 239 13z" />
    <glyph glyph-name="e" unicode="e" horiz-adv-x="1114" 
d="M1008 551q0 -21 -10.5 -33t-28.5 -12h-686v-29q0 -179 69.5 -256.5t214.5 -77.5q211 0 365 23h10q13 0 23 -7.5t10 -21.5v-69q0 -21 -8.5 -32.5t-32.5 -15.5q-173 -34 -367 -34q-75 0 -139.5 14t-125.5 49.5t-104.5 90t-69.5 140.5t-26 197v185q0 223 119 351t336 128
q220 0 335.5 -128t115.5 -351v-111zM825 643v19q0 170 -65 245.5t-203 75.5q-274 0 -274 -321v-19h542z" />
    <glyph glyph-name="f" unicode="f" horiz-adv-x="780" 
d="M729 1446q0 -31 -37 -31h-98q-73 0 -99 -28.5t-26 -112.5v-148h215q17 0 28 -10.5t11 -25.5v-80q0 -15 -11 -25t-28 -10h-215v-934q0 -15 -12 -28t-27 -13h-100q-17 0 -29 12.5t-12 28.5v934l-199 22q-17 2 -28 12t-11 25v56q0 15 11 25.5t28 10.5h199v148
q0 157 71.5 221t214.5 64q57 0 115 -13q39 -10 39 -33v-67z" />
    <glyph glyph-name="g" unicode="g" horiz-adv-x="1144" 
d="M1071 1028q0 -33 -37 -39l-73 -14q69 -73 69 -211v-16q0 -351 -455 -351q-140 0 -237 41q-51 -23 -51 -69q0 -27 14 -42t49 -24l305 -78q52 -13 86 -22.5t79.5 -25.5t75 -31.5t61 -38t50 -48.5t30.5 -60.5t12 -74.5v-16q0 -318 -467 -318q-237 0 -354 85.5t-117 240.5v18
q0 81 37 150.5t92 110.5l-15 6q-47 21 -70.5 64.5t-23.5 94.5v2q0 44 21.5 84t62.5 64q-94 88 -94 238v16q0 58 13 108t45.5 97.5t83 81.5t130.5 54.5t182 20.5h449q19 0 33 -13t14 -32v-53zM852 748v16q0 103 -61.5 161t-215.5 58q-83 0 -139.5 -17.5t-85 -49.5t-40 -68.5
t-11.5 -83.5v-16q0 -209 276 -209q81 0 136.5 15t85.5 44t42.5 65t12.5 85zM868 -92v16q0 58 -53.5 90.5t-196.5 69.5l-231 59q-50 -43 -75 -89t-25 -120v-18q0 -92 66.5 -139t228.5 -47q86 0 143 11.5t88 35.5t43 55t12 76z" />
    <glyph glyph-name="h" unicode="h" horiz-adv-x="1140" 
d="M1001 41q0 -17 -11.5 -29t-28.5 -12h-99q-17 0 -29 12t-12 29v674q0 146 -56 207t-163 61q-57 0 -139.5 -14.5t-143.5 -42.5v-885q0 -16 -11.5 -28.5t-28.5 -12.5h-101q-15 0 -27 12t-12 29v1458q0 17 11 29t28 12h103q17 0 27.5 -11.5t10.5 -29.5v-422q70 31 156.5 47.5
t157.5 16.5q171 0 269.5 -104.5t98.5 -321.5v-674z" />
    <glyph glyph-name="i" unicode="i" horiz-adv-x="505" 
d="M346 1348q0 -17 -12 -29t-29 -12h-104q-17 0 -29 12t-12 29v163q0 17 12 29t29 12h104q17 0 29 -12t12 -29v-163zM342 41q0 -17 -12 -29t-29 -12h-98q-17 0 -29 12t-12 29v1044q0 17 12 29t29 12h98q17 0 29 -12t12 -29v-1044z" />
    <glyph glyph-name="j" unicode="j" horiz-adv-x="505" 
d="M346 1346q0 -17 -12 -28t-29 -11h-104q-16 0 -28.5 11t-12.5 28v165q0 16 12 28.5t29 12.5h104q16 0 28.5 -12t12.5 -29v-165zM342 -131q0 -153 -63 -212.5t-193 -59.5q-56 0 -111 8q-36 5 -36 33v75q0 29 43 29h84q58 0 77 25t19 102v1216q0 16 10.5 28.5t26.5 12.5h106
q17 0 27 -11.5t10 -29.5v-1216z" />
    <glyph glyph-name="k" unicode="k" horiz-adv-x="1015" 
d="M944 27q0 -11 -6 -19t-16 -8h-148q-16 0 -25 5.5t-22 21.5l-408 503v-489q0 -17 -11.5 -29t-28.5 -12h-99q-17 0 -29 12t-12 29v1458q0 17 12 29t29 12h99q17 0 28.5 -12t11.5 -29v-852l410 461q15 18 41 18h143q31 0 31 -22q0 -13 -10 -23l-451 -487l455 -549
q6 -6 6 -18z" />
    <glyph glyph-name="l" unicode="l" horiz-adv-x="499" 
d="M340 41q0 -16 -10.5 -28.5t-26.5 -12.5h-106q-15 0 -26 12t-11 29v1460q0 16 10 27.5t27 11.5h106q15 0 26 -11t11 -28v-1460z" />
    <glyph glyph-name="m" unicode="m" horiz-adv-x="1634" 
d="M1495 41q0 -17 -12 -29t-29 -12h-98q-17 0 -29 12t-12 29v725q0 121 -49.5 170t-137.5 49q-97 0 -239 -55q18 -68 18 -160v-729q0 -16 -10.5 -28.5t-26.5 -12.5h-108q-15 0 -25 12t-10 29v729q0 127 -36.5 171t-121.5 44q-90 0 -250 -80v-864q0 -16 -10 -28.5t-26 -12.5
h-109q-15 0 -25 12t-10 29v1044q0 17 11 29t28 12h103q17 0 27.5 -11.5t10.5 -29.5v-38q154 96 299 96q132 0 205 -84q179 84 340 84q72 0 130 -19.5t104.5 -61.5t72 -117t25.5 -179v-725z" />
    <glyph glyph-name="n" unicode="n" horiz-adv-x="1140" 
d="M1001 41q0 -17 -11.5 -29t-28.5 -12h-99q-17 0 -29 12t-12 29v674q0 151 -52.5 210.5t-172.5 59.5q-117 0 -277 -80v-864q0 -16 -11.5 -28.5t-28.5 -12.5h-101q-15 0 -27 12t-12 29v1044q0 17 11 29t28 12h103q17 0 27.5 -11.5t10.5 -29.5v-38q88 49 163 71.5t163 22.5
q356 0 356 -426v-674z" />
    <glyph glyph-name="o" unicode="o" horiz-adv-x="1116" 
d="M1014 485q0 -231 -118 -365t-339 -134t-338 134t-117 365v156q0 231 117 365.5t338 134.5t339 -134.5t118 -365.5v-156zM834 485v156q0 162 -68.5 252t-208.5 90q-139 0 -206.5 -89.5t-67.5 -252.5v-156q0 -163 67 -252.5t207 -89.5q139 0 208 89.5t69 252.5z" />
    <glyph glyph-name="p" unicode="p" horiz-adv-x="1107" 
d="M1006 487q0 -244 -112.5 -372.5t-334.5 -128.5q-114 0 -240 22v-370q0 -16 -10.5 -27.5t-27.5 -11.5h-105q-15 0 -26 11t-11 28v1409q0 21 8 31t35 16q190 47 377 47q223 0 335 -134t112 -372v-148zM825 487v148q0 172 -60.5 263t-205.5 91q-126 0 -240 -20v-811
q119 -21 240 -21q144 0 205 88.5t61 261.5z" />
    <glyph glyph-name="q" unicode="q" horiz-adv-x="1107" 
d="M969 -362q0 -16 -10 -27.5t-27 -11.5h-105q-16 0 -27.5 11t-11.5 28v370q-123 -22 -239 -22q-221 0 -334 128.5t-113 372.5v148q0 238 111.5 372t335.5 134q187 0 377 -47q27 -6 35 -15t8 -32v-1409zM788 158v811q-110 20 -239 20q-145 0 -205.5 -90.5t-60.5 -263.5v-148
q0 -173 61 -261.5t205 -88.5q120 0 239 21z" />
    <glyph glyph-name="r" unicode="r" horiz-adv-x="700" 
d="M645 1020q0 -35 -43 -35q-139 0 -283 -86v-858q0 -16 -11.5 -28.5t-28.5 -12.5h-101q-15 0 -27 12t-12 29v1044q0 17 11 29t28 12h96q17 0 28 -12t11 -29v-43q140 99 289 99q43 0 43 -37v-84z" />
    <glyph glyph-name="s" unicode="s" horiz-adv-x="954" 
d="M852 283q0 -151 -101.5 -224t-281.5 -73q-204 0 -324 30q-43 10 -43 41v72q0 13 11 22t26 9h8q188 -23 322 -23q104 0 153.5 33t49.5 113q0 45 -33 81t-121 89l-207 122q-101 62 -155 132t-54 161q0 77 27.5 132t79.5 85t116 43t148 13q158 0 320 -27q38 -6 38 -41v-67
q0 -35 -34 -35h-6q-192 16 -318 16q-98 0 -144 -23.5t-46 -95.5q0 -43 32.5 -77t108.5 -78l203 -121q124 -73 174.5 -144.5t50.5 -164.5z" />
    <glyph glyph-name="t" unicode="t" horiz-adv-x="788" 
d="M737 31q0 -30 -37 -35q-68 -10 -133 -10q-75 0 -123.5 11.5t-85 41t-53 83.5t-16.5 138v715l-199 22q-39 3 -39 37v56q0 17 10.5 26.5t28.5 9.5h199v201q0 15 10 26.5t27 14.5l106 16h6q12 0 21.5 -9.5t9.5 -24.5v-224h221q17 0 29 -12t12 -29v-69q0 -17 -12 -29t-29 -12
h-221v-715q0 -81 23 -105t88 -24h114q43 0 43 -29v-71z" />
    <glyph glyph-name="u" unicode="u" horiz-adv-x="1140" 
d="M1001 41q0 -18 -10.5 -29.5t-27.5 -11.5h-103q-17 0 -28 12t-11 29v39q-88 -49 -162.5 -71.5t-162.5 -22.5q-357 0 -357 426v673q0 17 12 29t29 12h99q17 0 28.5 -12t11.5 -29v-673q0 -151 53 -211t173 -60q116 0 276 80v864q0 16 12 28.5t29 12.5h101q15 0 26.5 -12
t11.5 -29v-1044z" />
    <glyph glyph-name="v" unicode="v" horiz-adv-x="1085" 
d="M1006 1092q0 -9 -2 -15l-277 -975q-19 -65 -65.5 -90.5t-118.5 -25.5q-73 0 -119.5 25.5t-65.5 90.5l-276 975q-2 6 -2 15q0 15 9 24.5t24 9.5h112q27 0 39 -39l236 -892q9 -35 18 -47.5t25 -12.5q15 0 24.5 12.5t18.5 47.5l235 892q12 39 39 39h113q15 0 24 -9.5
t9 -24.5z" />
    <glyph glyph-name="w" unicode="w" horiz-adv-x="1609" 
d="M1532 1085v-8l-199 -950q-20 -95 -49 -118t-123 -23q-81 0 -112.5 26t-55.5 121l-178 696q-3 11 -4.5 13t-5.5 2t-5.5 -2t-4.5 -13l-179 -696q-23 -90 -55.5 -118.5t-111.5 -28.5q-94 0 -123.5 23.5t-49.5 117.5l-198 950v8q0 16 11 28.5t28 12.5h110q13 0 23 -10t12 -22
l170 -934q3 -17 7 -21t10 -4q10 0 16 25l201 786q17 62 82 62h114q65 0 82 -62l201 -786q6 -25 16 -25q4 0 6.5 1t5.5 6.5t5 17.5l170 934q2 13 11.5 22.5t22.5 9.5h111q17 0 28 -12.5t11 -28.5z" />
    <glyph glyph-name="x" unicode="x" horiz-adv-x="1120" 
d="M1047 23q0 -23 -27 -23h-141q-18 0 -29 16l-293 428l-293 -424q-9 -13 -15 -16.5t-20 -3.5h-123q-24 0 -24 20q0 14 10 27l369 526l-348 502q-11 18 -11 27q0 10 8.5 17t22.5 7h133q24 0 41 -28l260 -385l262 385q13 19 20.5 23.5t22.5 4.5h119q12 0 19.5 -6.5t7.5 -17.5
q0 -10 -10 -27l-344 -489l374 -539q9 -12 9 -24z" />
    <glyph glyph-name="y" unicode="y" horiz-adv-x="1093" 
d="M1014 1092q0 -11 -2 -15l-338 -1179q-33 -116 -73.5 -178.5t-112 -94t-189.5 -31.5q-90 0 -172 19q-43 10 -43 33v75q0 33 39 33h6q135 -12 182 -12q91 0 134.5 35t68.5 139l21 84h-29q-26 0 -45 4.5t-39.5 18t-37.5 43t-30 75.5l-272 936q-2 4 -2 15q0 34 37 34h112
q12 0 22 -9.5t13 -22.5l242 -889q7 -28 16.5 -36.5t22.5 -8.5h33l249 936q3 12 14.5 21t24.5 9h115q15 0 24 -9.5t9 -24.5z" />
    <glyph glyph-name="z" unicode="z" horiz-adv-x="987" 
d="M885 41q0 -17 -12 -29t-29 -12h-619q-62 0 -93.5 33t-31.5 80v39q0 42 10 70.5t37 62.5l529 657q8 12 8 19q0 14 -20 14h-498q-17 0 -29 12t-12 29v69q0 17 12 29t29 12h602q115 0 115 -100v-49q0 -57 -47 -113l-539 -674q-10 -10 -10 -22q0 -16 16 -16h541q17 0 29 -12
t12 -29v-70z" />
    <glyph glyph-name="braceleft" unicode="{" horiz-adv-x="677" 
d="M623 -356q0 -17 -12 -29t-29 -12h-105q-127 0 -193.5 26t-93 85t-26.5 171v361q0 96 -26 150.5t-97 105.5v119q72 51 97.5 104t25.5 149v365q0 112 26.5 171t93 85.5t193.5 26.5h103q17 0 29 -12t12 -29v-68q0 -17 -12 -29t-29 -12h-93q-90 0 -115.5 -25t-25.5 -108v-365
q0 -112 -32.5 -186t-112.5 -129q80 -56 112.5 -129t32.5 -184v-361q0 -83 25.5 -108t115.5 -25h95q17 0 29 -12t12 -29v-67z" />
    <glyph glyph-name="bar" unicode="|" horiz-adv-x="509" 
d="M346 -358q0 -15 -11 -27t-26 -12h-106q-15 0 -27 12t-12 27v1841q0 15 12 27t27 12h106q15 0 26 -12t11 -27v-1841z" />
    <glyph glyph-name="braceright" unicode="}" horiz-adv-x="677" 
d="M637 502q-71 -51 -97 -105.5t-26 -150.5v-361q0 -112 -26.5 -171t-93 -85t-193.5 -26h-105q-17 0 -29 12t-12 29v67q0 17 12 29t29 12h94q90 0 116 25t26 108v361q0 111 32.5 184t112.5 129q-80 55 -112.5 129t-32.5 186v365q0 83 -26 108t-116 25h-92q-17 0 -29 12
t-12 29v68q0 17 12 29t29 12h103q127 0 193.5 -26.5t93 -85.5t26.5 -171v-365q0 -96 25.5 -149t97.5 -104v-119z" />
    <glyph glyph-name="asciitilde" unicode="~" 
d="M1053 956q0 -132 -52 -197t-172 -65q-80 0 -155 58l-150 118q-65 52 -81 59q-13 5 -27 5q-54 0 -70 -28.5t-16 -92.5v-53q0 -17 -12 -29t-29 -12h-60q-17 0 -29 12t-12 29v53q0 131 59 198.5t169 67.5q83 0 153 -57l174 -139q20 -16 46 -28.5t40 -12.5q55 0 68.5 23
t13.5 91v58q0 17 12 29t29 12h60q17 0 29 -12t12 -29v-58z" />
    <glyph glyph-name="uni00A0" unicode="&#xa0;" horiz-adv-x="505" 
 />
    <glyph glyph-name="exclamdown" unicode="&#xa1;" horiz-adv-x="444" 
d="M313 895q0 -16 -11 -27.5t-28 -11.5h-98q-16 0 -27.5 11t-11.5 28v192q0 17 11 28t28 11h98q16 0 27.5 -11t11.5 -28v-192zM276 -416h-104q-16 0 -27.5 11t-11.5 28l14 1065q0 15 12 27t29 12h72q15 0 28 -12t13 -27l16 -1065q0 -17 -12.5 -28t-28.5 -11z" />
    <glyph glyph-name="cent" unicode="&#xa2;" 
d="M987 53q0 -21 -8.5 -31t-32.5 -14q-92 -14 -192 -20v-185q0 -17 -12 -29t-29 -12h-84q-17 0 -29 12t-12 29v193q-160 32 -247 160.5t-87 326.5v160q0 198 87 326.5t247 160.5v191q0 17 12 29t29 12h84q17 0 29 -12t12 -29v-182q90 -5 192 -21q24 -4 32.5 -13.5t8.5 -31.5
v-74q0 -14 -10.5 -22t-24.5 -8h-8q-144 16 -254 16q-125 0 -190.5 -85.5t-65.5 -256.5v-160q0 -170 65 -256t191 -86q101 0 254 17h8q14 0 24.5 -8.5t10.5 -22.5v-74z" />
    <glyph glyph-name="sterling" unicode="&#xa3;" 
d="M1096 35q0 -17 -11.5 -26t-29.5 -9h-817q-17 0 -26 9.5t-9 21.5v80q0 7 2 14t4.5 11.5t7 11.5t6.5 10q36 62 50 112.5t14 128.5v312h-107q-17 0 -27 10.5t-10 26.5v86q0 15 12 25.5t29 10.5h103v134q0 132 22 224.5t73.5 160t139.5 99.5t217 32q151 0 318 -27
q24 -4 31.5 -11.5t7.5 -23.5v-84q0 -35 -31 -35h-10q-207 23 -316 23q-158 0 -212 -74.5t-54 -283.5v-134h440q17 0 28 -10.5t11 -25.5v-86q0 -15 -12 -26t-29 -11h-438v-312q0 -113 -72 -243h654q41 0 41 -31v-90z" />
    <glyph glyph-name="currency" unicode="&#xa4;" 
d="M1122 1176q0 -17 -14 -31l-168 -168q68 -95 68 -213q0 -119 -70 -217l168 -168q14 -14 14 -31q0 -14 -10 -24l-55 -56q-10 -10 -23 -10q-17 0 -31 14l-172 172q-94 -67 -208 -67q-119 0 -213 67l-168 -168q-16 -16 -33 -16q-11 0 -21 10l-55 58q-10 13 -10 22q0 17 14 31
l166 166q-70 94 -70 217q0 119 66 211l-166 166q-14 14 -14 30q0 17 10 25l57 55q11 11 23 11q14 0 31 -17l163 -164q98 70 217 70q120 0 218 -70l168 168q15 15 30 15q12 0 23 -11l55 -55q10 -10 10 -22zM862 764q0 101 -72.5 172.5t-173.5 71.5t-173 -71.5t-72 -172.5
t72 -173.5t173 -72.5t173.5 72.5t72.5 173.5z" />
    <glyph glyph-name="yen" unicode="&#xa5;" 
d="M1165 473q0 -17 -12 -29t-29 -12h-409v-391q0 -16 -10.5 -28.5t-26.5 -12.5h-117q-15 0 -25 12t-10 29v391h-411q-17 0 -29 12t-12 29v62q0 17 12 28.5t29 11.5h411v43l-112 226h-299q-17 0 -29 12t-12 29v61q0 17 12 29t29 12h227l-244 483q-6 15 -6 25q0 12 9 19.5
t24 7.5h129q10 0 20 -9t15 -20l332 -694l331 694q12 29 35 29h127q15 0 25 -8t10 -21q0 -11 -6 -23l-244 -483h225q17 0 29 -12t12 -29v-61q0 -17 -12 -29t-29 -12h-297l-112 -226v-43h409q17 0 29 -11.5t12 -28.5v-62z" />
    <glyph glyph-name="brokenbar" unicode="&#xa6;" horiz-adv-x="509" 
d="M346 741q0 -15 -11 -28t-26 -13h-108q-15 0 -26 13t-11 28v711q0 15 11 27t26 12h108q15 0 26 -12t11 -27v-711zM346 -391q0 -15 -11 -28t-26 -13h-108q-15 0 -26 13t-11 28v710q0 15 11 27t26 12h108q15 0 26 -12t11 -27v-710z" />
    <glyph glyph-name="section" unicode="&#xa7;" horiz-adv-x="1120" 
d="M1022 -35q0 -54 -10 -101.5t-31.5 -94.5t-60.5 -84.5t-93.5 -66.5t-133.5 -44.5t-177 -15.5q-164 0 -344 28q-15 3 -27 14t-12 25v86q0 16 12.5 25.5t28.5 9.5h4q222 -20 332 -20h6q89 0 150.5 16.5t95 49.5t47.5 74.5t14 98.5q0 82 -43.5 134t-177.5 132l-229 138
q-159 96 -217 179.5t-58 205.5q0 106 70 215q-32 34 -51 89t-19 118q0 176 115.5 268t374.5 92q80 0 194 -9.5t164 -17.5q16 -3 26.5 -14t10.5 -25v-88q0 -15 -11 -24.5t-26 -9.5h-2q-45 2 -167 10t-189 8q-118 0 -183 -21t-88.5 -60.5t-23.5 -108.5q0 -71 42 -119.5
t165 -120.5l223 -131q175 -102 237 -193.5t62 -216.5q0 -132 -59 -223q59 -86 59 -207zM834 395q0 81 -42 131t-167 127l-185 113q-13 8 -45.5 28.5t-57.5 36.5t-44 31q-9 -28 -11.5 -37t-5 -27t-2.5 -44q0 -69 45 -124t138 -110l225 -131q71 -42 137 -88q11 36 13 47.5
t2 46.5z" />
    <glyph glyph-name="dieresis" unicode="&#xa8;" horiz-adv-x="763" 
d="M643 1352q0 -17 -12.5 -28t-28.5 -11h-80q-16 0 -28.5 11t-12.5 28v166q0 15 13 28t28 13h80q15 0 28 -13t13 -28v-166zM285 1352q0 -17 -12.5 -28t-28.5 -11h-80q-16 0 -28.5 11t-12.5 28v166q0 15 13 28t28 13h80q15 0 28 -13t13 -28v-166z" />
    <glyph glyph-name="copyright" unicode="&#xa9;" horiz-adv-x="1536" 
d="M1434 766q0 -180 -90 -333t-243.5 -242t-334.5 -89t-333.5 89t-241.5 241.5t-89 333.5q0 135 52.5 259t141.5 214t212 143.5t258 53.5q180 0 334 -90.5t244 -244.5t90 -335zM1343 766q0 157 -77 290.5t-210 211.5t-290 78t-289.5 -78t-209.5 -211.5t-77 -290.5t77 -289
t209.5 -208t289.5 -76q118 0 224.5 45t184 121.5t123 183t45.5 223.5zM975 375q0 -14 -9.5 -21.5t-21.5 -9.5q-72 -14 -186 -14q-142 0 -228 91t-86 284v135q0 195 86 286t228 91q98 0 186 -17q31 -4 31 -29v-57q0 -24 -27 -24h-6q-107 10 -184 10q-84 0 -135.5 -60.5
t-51.5 -199.5v-135q0 -139 51.5 -199t135.5 -60q66 0 184 11h4q29 0 29 -27v-55z" />
    <glyph glyph-name="ordfeminine" unicode="&#xaa;" horiz-adv-x="602" 
d="M541 922q0 -28 -21 -33q-95 -27 -201 -27q-136 0 -197 48.5t-61 152.5v14q0 98 70.5 143.5t220.5 45.5h66v26q0 71 -25 100t-86 29q-55 0 -172 -10h-4q-11 0 -20 7t-9 20v43q0 24 31 28q107 19 174 19q121 0 177.5 -59t56.5 -177v-370zM420 969v211h-47h-19
q-98 -3 -136 -25.5t-38 -77.5v-14q0 -56 29.5 -80.5t109.5 -24.5q38 0 101 11z" />
    <glyph glyph-name="guillemotleft" unicode="&#xab;" horiz-adv-x="1257" 
d="M1147 162q0 -8 -6.5 -13.5t-16.5 -5.5h-118q-22 0 -43 21l-347 346q-22 22 -22 57q0 36 22 58l347 346q20 20 43 20h118q23 0 23 -18q0 -15 -12 -27l-365 -379l365 -379q12 -12 12 -26zM614 162q0 -19 -22 -19h-119q-22 0 -43 21l-346 346q-23 23 -23 57q0 35 23 58
l346 346q20 20 43 20h119q22 0 22 -18q0 -15 -12 -27l-364 -379l364 -379q12 -12 12 -26z" />
    <glyph glyph-name="logicalnot" unicode="&#xac;" 
d="M1055 506q0 -17 -12 -29t-29 -12h-66q-17 0 -29 12t-12 29v448h-682q-41 0 -41 33v82q0 33 41 33h795q15 0 25 -10t10 -25v-561z" />
    <glyph glyph-name="uni00AD" unicode="&#xad;" horiz-adv-x="681" 
d="M584 559q0 -15 -11 -25t-28 -10h-408q-39 0 -39 35v80q0 15 11 26t28 11h408q17 0 28 -10t11 -27v-80z" />
    <glyph glyph-name="registered" unicode="&#xae;" horiz-adv-x="1224" 
d="M1165 991q0 -112 -44 -214t-118 -175.5t-176.5 -116.5t-214.5 -43t-214 43t-176 116.5t-117.5 175.5t-43.5 214t43.5 214t117.5 176t176 117.5t214 43.5t214.5 -43.5t176.5 -117t118 -176t44 -214.5zM1081 991q0 127 -63 235t-171 171t-235 63q-193 0 -329 -137.5
t-136 -331.5q0 -193 135.5 -329t329.5 -136t331.5 136t137.5 329zM870 678q0 -27 -24 -27h-58q-16 0 -24 17l-166 262l-25 6h-81v-254q0 -11 -8.5 -21t-20.5 -10h-51q-11 0 -19 10t-8 21v618q0 43 37 46q47 6 156 6q134 0 201 -47.5t67 -159.5v-8q0 -145 -137 -185l157 -256
q4 -8 4 -18zM743 1137v8q0 61 -36.5 85.5t-122.5 24.5h-66h-29v-229q12 0 50 -1t45 -1q86 0 122.5 26t36.5 87z" />
    <glyph glyph-name="macron" unicode="&#xaf;" horiz-adv-x="763" 
d="M719 1417q0 -17 -11.5 -26t-29.5 -9h-590q-18 0 -29.5 9t-11.5 26v70q0 17 11.5 26t29.5 9h590q18 0 29.5 -9t11.5 -26v-70z" />
    <glyph glyph-name="degree" unicode="&#xb0;" horiz-adv-x="700" 
d="M643 1245q0 -120 -85.5 -205.5t-205.5 -85.5t-206.5 85.5t-86.5 205.5t86.5 205.5t206.5 85.5t205.5 -85.5t85.5 -205.5zM532 1245q0 73 -53 126.5t-127 53.5t-127 -53.5t-53 -126.5t53 -126.5t127 -53.5t127 53.5t53 126.5z" />
    <glyph glyph-name="plusminus" unicode="&#xb1;" 
d="M1085 760q0 -33 -41 -33h-352v-350q0 -41 -33 -41h-81q-33 0 -33 41v350h-350q-41 0 -41 33v82q0 32 41 32h350v353q0 41 33 41h81q33 0 33 -41v-353h352q41 0 41 -32v-82zM1085 33q0 -33 -41 -33h-849q-41 0 -41 33v67q0 33 41 33h849q41 0 41 -33v-67z" />
    <glyph glyph-name="two.superior" unicode="&#xb2;" horiz-adv-x="681" 
d="M602 1315q0 -67 -34.5 -118.5t-112.5 -109.5q-100 -66 -107 -71q-87 -58 -117 -104.5t-30 -114.5v-9h354q15 0 26 -9t11 -25v-47q0 -16 -11.5 -26.5t-25.5 -10.5h-438q-14 0 -25.5 10.5t-11.5 26.5v90q0 187 176 303l113 74h-2q66 48 86 73t20 68q0 51 -35 74.5
t-114 23.5q-77 0 -199 -18q-15 0 -24 10t-9 27v38q0 27 31 37q85 21 201 21q141 0 209.5 -52t68.5 -161z" />
    <glyph glyph-name="three.superior" unicode="&#xb3;" horiz-adv-x="681" 
d="M598 913q0 -128 -78 -189.5t-213 -61.5q-78 0 -190 22q-13 3 -23 13t-10 24v37q0 37 39 37q116 -17 184 -17q82 0 119 32t37 103v23q0 47 -26.5 84t-86.5 37h-200q-35 0 -35 33v40q0 35 35 35h200q62 0 87.5 34.5t25.5 82.5v14q0 61 -36 89t-120 28q-42 0 -164 -16
q-3 0 -11 -1t-13 -1q-15 0 -25 10t-10 27v36q0 27 31 39q107 21 192 21q140 0 215.5 -53.5t75.5 -178.5v-14q0 -114 -88 -172q88 -54 88 -174v-23z" />
    <glyph glyph-name="acute" unicode="&#xb4;" horiz-adv-x="763" 
d="M682 1581q0 -8 -8 -16l-232 -258q-2 -3 -6.5 -8t-6.5 -7l-5.5 -5.5t-6 -5t-6 -3t-7.5 -2t-9 -0.5h-110q-19 0 -19 14q0 13 8 21l201 254q15 19 23 24.5t26 5.5h135q23 0 23 -14z" />
    <glyph glyph-name="mu" unicode="&#xb5;" horiz-adv-x="1140" 
d="M1001 90q0 -36 -38 -47q-153 -57 -379 -57q-162 0 -265 59v-405q0 -17 -11.5 -29t-28.5 -12h-99q-17 0 -29 12t-12 29v1445q0 16 11 28.5t28 12.5h103q15 0 26.5 -12t11.5 -29v-673q0 -142 64 -207.5t201 -65.5q136 0 237 29v917q0 16 12 28.5t29 12.5h101q15 0 26.5 -12
t11.5 -29v-995z" />
    <glyph glyph-name="paragraph" unicode="&#xb6;" horiz-adv-x="1273" 
d="M1141 -360q0 -15 -10 -27t-25 -12h-47q-15 0 -25 12t-10 27v1771h-119v-1771q0 -15 -10 -27t-25 -12h-47q-15 0 -25 12t-10 27v899h-213q-218 0 -350.5 120t-132.5 336v70q0 216 132.5 336.5t350.5 120.5h533q33 0 33 -39v-1843z" />
    <glyph glyph-name="periodcentered" unicode="&#xb7;" horiz-adv-x="438" 
d="M307 707q0 -17 -11 -29t-28 -12h-98q-15 0 -27 12t-12 29v190q0 16 11 27.5t28 11.5h98q16 0 27.5 -11t11.5 -28v-190z" />
    <glyph glyph-name="cedilla" unicode="&#xb8;" horiz-adv-x="749" 
d="M520 -80q0 -8 -8 -16l-231 -258q-2 -2 -6.5 -7t-5.5 -6.5t-4.5 -5t-5.5 -4.5t-5.5 -3t-6 -3t-6.5 -1.5t-8 -0.5h-110q-19 0 -19 14q0 12 9 21l198 254q14 18 23.5 24t27.5 6h136q22 0 22 -14z" />
    <glyph glyph-name="one.superior" unicode="&#xb9;" horiz-adv-x="681" 
d="M276 1376l-131 -55q-34 -11 -34 27v57q0 20 20 27l164 77q27 13 65 13h13q16 0 24.5 -6.5t9.5 -13t1 -19.5v-774q0 -14 -10.5 -26.5t-24.5 -12.5h-62q-15 0 -25 12t-10 27v667z" />
    <glyph glyph-name="ordmasculine" unicode="&#xba;" horiz-adv-x="659" 
d="M596 1159q0 -144 -67 -220.5t-197 -76.5t-198 77t-68 220v72q0 143 68 220t198 77t197 -76.5t67 -220.5v-72zM471 1159v72q0 96 -32.5 142t-106.5 46t-109 -46.5t-35 -141.5v-72q0 -190 144 -190q73 0 106 47t33 143z" />
    <glyph glyph-name="guillemotright" unicode="&#xbb;" horiz-adv-x="1257" 
d="M1196 567q0 -35 -22 -57l-347 -346q-21 -21 -43 -21h-118q-10 0 -16.5 5.5t-6.5 13.5q0 14 12 26l365 379l-365 379q-12 12 -12 27q0 18 23 18h118q23 0 43 -20l347 -346q22 -22 22 -58zM664 567q0 -34 -23 -57l-346 -346q-21 -21 -43 -21h-119q-22 0 -22 19q0 14 12 26
l364 379l-364 379q-12 12 -12 27q0 18 22 18h119q23 0 43 -20l346 -346q23 -23 23 -58z" />
    <glyph glyph-name="onequarter" unicode="&#xbc;" horiz-adv-x="1517" 
d="M1188 1509q0 -6 -10 -26l-856 -1450q-13 -23 -22.5 -32t-23.5 -9h-100q-20 0 -20 16q0 14 8 25l856 1450q14 23 23 31t24 8h104q17 0 17 -13zM248 1376l-131 -55q-35 -11 -35 27v57q0 20 20 27l164 77q27 13 66 13h12q16 0 24.5 -6.5t9.5 -13t1 -19.5v-774
q0 -14 -10.5 -26.5t-24.5 -12.5h-61q-15 0 -25 12t-10 27v667zM1436 254q0 -16 -11.5 -25.5t-27.5 -9.5h-78v-180q0 -15 -10.5 -27t-26.5 -12h-63q-16 0 -25.5 11.5t-9.5 27.5v180h-301q-35 0 -49.5 12t-14.5 45v41q0 30 17 54l331 458q11 23 41 23h64q47 0 47 -41v-477h78
q15 0 27 -10t12 -25v-45zM1186 334v332l-232 -332h232z" />
    <glyph glyph-name="onehalf" unicode="&#xbd;" horiz-adv-x="1523" 
d="M1188 1509q0 -6 -10 -26l-856 -1450q-13 -23 -22.5 -32t-23.5 -9h-100q-20 0 -20 16q0 14 8 25l856 1450q14 23 23 31t24 8h104q17 0 17 -13zM248 1376l-131 -55q-35 -11 -35 27v57q0 20 20 27l164 77q27 13 66 13h12q16 0 24.5 -6.5t9.5 -13t1 -19.5v-774
q0 -14 -10.5 -26.5t-24.5 -12.5h-61q-15 0 -25 12t-10 27v667zM1442 645q0 -67 -35 -118t-113 -109q-83 -54 -106 -72q-87 -59 -117.5 -105t-30.5 -114v-8h355q15 0 26 -9.5t11 -25.5v-47q0 -16 -11.5 -26.5t-25.5 -10.5h-439q-14 0 -25 10t-11 27v90q0 187 176 303l112 74
h-2q67 48 87 73.5t20 67.5q0 51 -35.5 74.5t-114.5 23.5q-76 0 -198 -18q-15 0 -24 10t-9 27v39q0 27 31 37q81 20 200 20q141 0 210 -52.5t69 -160.5z" />
    <glyph glyph-name="threequarters" unicode="&#xbe;" horiz-adv-x="1691" 
d="M1360 1509q0 -6 -10 -26l-856 -1450q-13 -23 -22 -32t-23 -9h-101q-20 0 -20 16q0 14 8 25l856 1450q14 23 23 31t24 8h104q17 0 17 -13zM1610 254q0 -16 -11.5 -25.5t-27.5 -9.5h-78v-180q0 -15 -10.5 -27t-26.5 -12h-63q-16 0 -25.5 11.5t-9.5 27.5v180h-301
q-35 0 -49.5 12t-14.5 45v41q0 30 17 54l331 458q11 23 41 23h64q47 0 47 -41v-477h78q15 0 27 -10t12 -25v-45zM1360 334v332l-232 -332h232zM596 913q0 -128 -78 -189.5t-213 -61.5q-78 0 -190 22q-13 3 -23 13t-10 24v37q0 37 39 37q116 -17 184 -17q82 0 119 32t37 103
v23q0 47 -26.5 84t-86.5 37h-201q-34 0 -34 33v40q0 35 34 35h201q62 0 87.5 34.5t25.5 82.5v14q0 61 -36 89t-120 28q-42 0 -164 -16q-3 0 -11 -1t-13 -1q-15 0 -25 10t-10 27v36q0 27 31 39q107 21 192 21q140 0 215.5 -53.5t75.5 -178.5v-14q0 -114 -88 -172
q88 -54 88 -174v-23z" />
    <glyph glyph-name="questiondown" unicode="&#xbf;" horiz-adv-x="913" 
d="M672 897q0 -16 -12 -28.5t-29 -12.5h-99q-15 0 -26.5 12t-11.5 29v190q0 17 10.5 28t27.5 11h99q16 0 28.5 -11t12.5 -28v-190zM831 -338q0 -22 -5.5 -32.5t-28.5 -14.5q-142 -27 -279 -27q-409 0 -409 310v24q0 77 37.5 151t148.5 199l92 105q47 54 64.5 76t31 56.5
t13.5 78.5v100q0 17 12 28t29 11h90q16 0 27.5 -11t11.5 -28v-100q0 -97 -27.5 -158.5t-108.5 -150.5l-94 -105q-75 -83 -101 -136t-26 -116v-24q0 -80 50.5 -114t158.5 -34q102 0 277 19h6q30 0 30 -35v-72z" />
    <glyph glyph-name="Agrave" unicode="&#xc0;" horiz-adv-x="1296" 
d="M1237 33q0 -14 -9 -23.5t-26 -9.5h-121q-26 0 -34 31l-134 471h-530l-131 -471q-3 -12 -14 -21.5t-23 -9.5h-121q-15 0 -25 9.5t-10 23.5q0 10 2 14l379 1333q24 85 81.5 120.5t127.5 35.5q69 0 126 -34.5t81 -119.5l379 -1335q2 -4 2 -14zM874 664l-186 673
q-10 37 -39 37q-31 0 -41 -37l-186 -673h452zM788 1640q0 -14 -18 -14h-111q-6 0 -10.5 1t-7.5 2t-7.5 5t-6 5.5t-7.5 8.5t-8 9l-231 258q-8 8 -8 16q0 15 22 15h135q18 0 28 -6.5t24 -24.5l198 -254q8 -8 8 -21z" />
    <glyph glyph-name="Aacute" unicode="&#xc1;" horiz-adv-x="1296" 
d="M1237 33q0 -14 -9 -23.5t-26 -9.5h-121q-26 0 -34 31l-134 471h-530l-131 -471q-3 -12 -14 -21.5t-23 -9.5h-121q-15 0 -25 9.5t-10 23.5q0 10 2 14l379 1333q24 85 81.5 120.5t127.5 35.5q69 0 126 -34.5t81 -119.5l379 -1335q2 -4 2 -14zM874 664l-186 673
q-10 37 -39 37q-31 0 -41 -37l-186 -673h452zM961 1931q0 -7 -9 -16l-231 -258q-2 -3 -6.5 -8t-6.5 -7l-5.5 -5.5t-6 -5t-6 -3t-7.5 -2t-9 -0.5h-111q-18 0 -18 14q0 13 8 21l201 254q11 14 16 19t13 8.5t20 3.5h135q23 0 23 -15z" />
    <glyph glyph-name="Acircumflex" unicode="&#xc2;" horiz-adv-x="1296" 
d="M1237 33q0 -14 -9 -23.5t-26 -9.5h-121q-26 0 -34 31l-134 471h-530l-131 -471q-3 -12 -14 -21.5t-23 -9.5h-121q-15 0 -25 9.5t-10 23.5q0 10 2 14l379 1333q24 85 81.5 120.5t127.5 35.5q69 0 126 -34.5t81 -119.5l379 -1335q2 -4 2 -14zM874 664l-186 673
q-10 37 -39 37q-31 0 -41 -37l-186 -673h452zM999 1640q0 -14 -18 -14h-107q-6 0 -10.5 1t-7.5 2t-7.5 5t-6 5.5t-7.5 8.5t-8 9l-168 198l-170 -198q-2 -3 -6.5 -8t-6.5 -7l-5.5 -5.5t-6 -5t-6 -3t-7.5 -2t-9 -0.5h-106q-19 0 -19 14q0 12 9 21l196 254q11 14 16 19t13 8.5
t20 3.5h174q18 0 28 -6.5t24 -24.5l194 -254q8 -8 8 -21z" />
    <glyph glyph-name="Atilde" unicode="&#xc3;" horiz-adv-x="1296" 
d="M1237 33q0 -14 -9 -23.5t-26 -9.5h-121q-26 0 -34 31l-134 471h-530l-131 -471q-3 -12 -14 -21.5t-23 -9.5h-121q-15 0 -25 9.5t-10 23.5q0 10 2 14l379 1333q24 85 81.5 120.5t127.5 35.5q69 0 126 -34.5t81 -119.5l379 -1335q2 -4 2 -14zM874 664l-186 673
q-10 37 -39 37q-31 0 -41 -37l-186 -673h452zM1018 1831q0 -108 -46 -161.5t-147 -53.5q-76 0 -131 43l-125 100q-37 30 -51.5 37.5t-32.5 7.5q-35 0 -49 -23t-14 -71v-43q0 -13 -11 -24t-24 -11h-63q-13 0 -23 10.5t-10 24.5v43q0 109 51 166t143 57q60 0 123 -49l146 -115
q35 -28 71 -28q32 0 47 19.5t15 70.5v47q0 14 10.5 24.5t24.5 10.5h63q13 0 23 -10.5t10 -24.5v-47z" />
    <glyph glyph-name="Adieresis" unicode="&#xc4;" horiz-adv-x="1296" 
d="M1237 33q0 -14 -9 -23.5t-26 -9.5h-121q-26 0 -34 31l-134 471h-530l-131 -471q-3 -12 -14 -21.5t-23 -9.5h-121q-15 0 -25 9.5t-10 23.5q0 10 2 14l379 1333q24 85 81.5 120.5t127.5 35.5q69 0 126 -34.5t81 -119.5l379 -1335q2 -4 2 -14zM874 664l-186 673
q-10 37 -39 37q-31 0 -41 -37l-186 -673h452zM922 1694q0 -17 -12.5 -28t-28.5 -11h-80q-16 0 -28.5 11t-12.5 28v166q0 15 13 28t28 13h80q15 0 28 -13t13 -28v-166zM563 1694q0 -17 -12.5 -28t-28.5 -11h-80q-16 0 -28.5 11t-12.5 28v166q0 15 13 28t28 13h80q15 0 28 -13
t13 -28v-166z" />
    <glyph glyph-name="Aring" unicode="&#xc5;" horiz-adv-x="1296" 
d="M1237 33q0 -14 -9 -23.5t-26 -9.5h-121q-26 0 -34 31l-134 471h-530l-131 -471q-3 -12 -14 -21.5t-23 -9.5h-121q-15 0 -25 9.5t-10 23.5q0 10 2 14l379 1333q24 85 81.5 120.5t127.5 35.5q69 0 126 -34.5t81 -119.5l379 -1335q2 -4 2 -14zM874 664l-186 673
q-10 37 -39 37q-31 0 -41 -37l-186 -673h452zM854 1798q0 -86 -60.5 -146.5t-146.5 -60.5t-147.5 60.5t-61.5 146.5t61.5 147.5t147.5 61.5t146.5 -61.5t60.5 -147.5zM756 1800q0 44 -32.5 75.5t-76.5 31.5t-75 -31.5t-31 -75.5t31 -76t75 -32t76.5 32t32.5 76z" />
    <glyph glyph-name="AE" unicode="&#xc6;" horiz-adv-x="1759" 
d="M1647 29q0 -9 -6 -18.5t-15 -10.5q-133 -14 -338 -14q-220 0 -328 90.5t-108 290.5v135h-490l-131 -471q-3 -12 -13.5 -21.5t-22.5 -9.5h-121q-15 0 -25 9.5t-10 23.5q0 10 2 14l379 1321q46 154 209 154h997q8 0 14.5 -9.5t6.5 -19.5v-109q0 -24 -23 -24h-586v-490h568
q17 0 29 -12t12 -29v-77q0 -17 -12 -29t-29 -12h-568v-344q0 -84 17.5 -126.5t72 -64.5t162.5 -22h334q10 0 16.5 -7t6.5 -18v-100zM852 664v696h-223q-32 0 -41 -35l-187 -661h451z" />
    <glyph glyph-name="Ccedilla" unicode="&#xc7;" horiz-adv-x="1116" 
d="M1044 53q0 -34 -40 -41q-140 -26 -340 -26q-81 0 -153.5 17.5t-145 62.5t-125 114t-85 181.5t-32.5 256.5v285q0 145 32.5 258t85 182t125 114t145 62t153.5 17q132 0 344 -33q32 -4 32 -26v-105q0 -22 -24 -22h-6q-222 18 -344 18q-79 0 -141.5 -24.5t-112 -77
t-76.5 -144.5t-27 -219v-285q0 -125 27 -217t76.5 -145t112.5 -77.5t141 -24.5q141 0 338 16h8q32 0 32 -33v-84zM780 -80q0 -8 -8 -16l-231 -258q-2 -3 -6.5 -8t-6.5 -7l-5.5 -5.5t-6 -5t-6 -3t-7.5 -2t-9 -0.5h-111q-18 0 -18 14q0 9 8 21l198 254q23 30 52 30h135
q22 0 22 -14z" />
    <glyph glyph-name="Egrave" unicode="&#xc8;" horiz-adv-x="1128" 
d="M1016 25q0 -9 -6 -18.5t-15 -10.5q-97 -10 -399 -10q-220 0 -328 90.5t-108 290.5v788q0 200 108 290.5t328 90.5q270 0 399 -12q9 -1 15 -10.5t6 -18.5v-102q0 -11 -6.5 -18t-16.5 -7h-395q-108 0 -162.5 -22t-72 -64.5t-17.5 -126.5v-285h629q17 0 29 -12t12 -29v-77
q0 -17 -12 -29t-29 -12h-629v-344q0 -84 17.5 -126.5t72 -64.5t162.5 -22h395q10 0 16.5 -7t6.5 -18v-104zM737 1638q0 -14 -18 -14h-111q-6 0 -10.5 1t-7.5 2t-7.5 5t-6 5.5t-7.5 8.5t-8 9l-231 258q-8 8 -8 16q0 15 22 15h135q18 0 27 -6t24 -25l199 -254q8 -8 8 -21z" />
    <glyph glyph-name="Eacute" unicode="&#xc9;" horiz-adv-x="1128" 
d="M1016 25q0 -9 -6 -18.5t-15 -10.5q-97 -10 -399 -10q-220 0 -328 90.5t-108 290.5v788q0 200 108 290.5t328 90.5q270 0 399 -12q9 -1 15 -10.5t6 -18.5v-102q0 -11 -6.5 -18t-16.5 -7h-395q-108 0 -162.5 -22t-72 -64.5t-17.5 -126.5v-285h629q17 0 29 -12t12 -29v-77
q0 -17 -12 -29t-29 -12h-629v-344q0 -84 17.5 -126.5t72 -64.5t162.5 -22h395q10 0 16.5 -7t6.5 -18v-104zM893 1931q0 -8 -8 -16l-232 -258q-2 -3 -6.5 -8t-6.5 -7l-5.5 -5.5t-6 -5t-6 -3t-7.5 -2t-9 -0.5h-110q-19 0 -19 14q0 13 8 21l201 254q11 14 16 19t13 8.5t20 3.5
h135q23 0 23 -15z" />
    <glyph glyph-name="Ecircumflex" unicode="&#xca;" horiz-adv-x="1128" 
d="M1016 25q0 -9 -6 -18.5t-15 -10.5q-97 -10 -399 -10q-220 0 -328 90.5t-108 290.5v788q0 200 108 290.5t328 90.5q270 0 399 -12q9 -1 15 -10.5t6 -18.5v-102q0 -11 -6.5 -18t-16.5 -7h-395q-108 0 -162.5 -22t-72 -64.5t-17.5 -126.5v-285h629q17 0 29 -12t12 -29v-77
q0 -17 -12 -29t-29 -12h-629v-344q0 -84 17.5 -126.5t72 -64.5t162.5 -22h395q10 0 16.5 -7t6.5 -18v-104zM934 1640q0 -14 -19 -14h-106q-6 0 -10.5 1t-7.5 2t-7.5 5t-6 5.5t-7.5 8.5t-8 9l-168 198l-170 -198q-2 -3 -6.5 -8t-6.5 -7l-5.5 -5.5t-6 -5t-6 -3t-7.5 -2
t-9 -0.5h-107q-18 0 -18 14q0 13 8 21l197 254q11 14 16 19t13 8.5t20 3.5h174q18 0 27 -6t24 -25l195 -254q8 -8 8 -21z" />
    <glyph glyph-name="Edieresis" unicode="&#xcb;" horiz-adv-x="1128" 
d="M1016 25q0 -9 -6 -18.5t-15 -10.5q-97 -10 -399 -10q-220 0 -328 90.5t-108 290.5v788q0 200 108 290.5t328 90.5q270 0 399 -12q9 -1 15 -10.5t6 -18.5v-102q0 -11 -6.5 -18t-16.5 -7h-395q-108 0 -162.5 -22t-72 -64.5t-17.5 -126.5v-285h629q17 0 29 -12t12 -29v-77
q0 -17 -12 -29t-29 -12h-629v-344q0 -84 17.5 -126.5t72 -64.5t162.5 -22h395q10 0 16.5 -7t6.5 -18v-104zM868 1698q0 -17 -12.5 -28t-28.5 -11h-79q-16 0 -28.5 11t-12.5 28v166q0 15 13 28t28 13h79q15 0 28 -13t13 -28v-166zM510 1698q0 -17 -12.5 -28t-28.5 -11h-80
q-16 0 -28.5 11t-12.5 28v166q0 15 13 28t28 13h80q15 0 28 -13t13 -28v-166z" />
    <glyph glyph-name="Igrave" unicode="&#xcc;" horiz-adv-x="546" 
d="M367 41q0 -16 -10.5 -28.5t-26.5 -12.5h-113q-15 0 -26 12t-11 29v1442q0 16 10 27.5t27 11.5h113q15 0 26 -11t11 -28v-1442zM406 1640q0 -14 -19 -14h-111q-6 0 -10.5 1t-7.5 2t-7.5 5t-6 5.5t-7.5 8.5t-8 9l-231 258q-8 8 -8 16q0 15 22 15h135q18 0 28 -6.5t24 -24.5
l198 -254q9 -9 9 -21z" />
    <glyph glyph-name="Iacute" unicode="&#xcd;" horiz-adv-x="546" 
d="M367 41q0 -16 -10.5 -28.5t-26.5 -12.5h-113q-15 0 -26 12t-11 29v1442q0 16 10 27.5t27 11.5h113q15 0 26 -11t11 -28v-1442zM557 1931q0 -8 -8 -16l-232 -258q-2 -3 -6.5 -8t-6.5 -7l-5.5 -5.5t-6 -5t-6 -3t-7.5 -2t-9 -0.5h-110q-19 0 -19 14q0 12 9 21l200 254
q11 14 16 19t13 8.5t20 3.5h136q22 0 22 -15z" />
    <glyph glyph-name="Icircumflex" unicode="&#xce;" horiz-adv-x="546" 
d="M367 41q0 -16 -10.5 -28.5t-26.5 -12.5h-113q-15 0 -26 12t-11 29v1442q0 16 10 27.5t27 11.5h113q15 0 26 -11t11 -28v-1442zM606 1640q0 -14 -18 -14h-107q-6 0 -10.5 1t-7.5 2t-7.5 5t-6 5.5t-7.5 8.5t-8 9l-168 198l-170 -198q-2 -3 -6.5 -8t-6.5 -7l-5.5 -5.5t-6 -5
t-6 -3t-7.5 -2t-9 -0.5h-106q-19 0 -19 14q0 13 8 21l197 254q11 14 16 19t13 8.5t20 3.5h174q18 0 27 -6t24 -25l195 -254q8 -8 8 -21z" />
    <glyph glyph-name="Idieresis" unicode="&#xcf;" horiz-adv-x="546" 
d="M367 41q0 -16 -10.5 -28.5t-26.5 -12.5h-113q-15 0 -26 12t-11 29v1442q0 16 10 27.5t27 11.5h113q15 0 26 -11t11 -28v-1442zM535 1696q0 -17 -12.5 -28t-28.5 -11h-80q-16 0 -28.5 11t-12.5 28v166q0 15 13 28t28 13h80q15 0 28 -13t13 -28v-166zM176 1696
q0 -17 -12.5 -28t-28.5 -11h-80q-16 0 -28.5 11t-12.5 28v166q0 15 13 28t28 13h80q15 0 28 -13t13 -28v-166z" />
    <glyph glyph-name="Eth" unicode="&#xd0;" horiz-adv-x="1312" 
d="M1196 623q0 -320 -164 -478.5t-457 -158.5q-254 0 -372 20q-43 6 -43 51v654h-78q-17 0 -29 12t-12 29v77q0 17 12 29t29 12h78v594q0 46 43 52q118 20 372 20q294 0 457.5 -157.5t163.5 -479.5v-276zM1010 623v276q0 109 -22 192t-60 136.5t-94 87.5t-119 47.5
t-140 13.5q-125 0 -227 -6v-500h211q17 0 29 -12t12 -29v-77q0 -17 -12 -29t-29 -12h-211v-561q83 -5 227 -5q97 0 172.5 23.5t136.5 76.5t93.5 148.5t32.5 229.5z" />
    <glyph glyph-name="Ntilde" unicode="&#xd1;" horiz-adv-x="1392" 
d="M1233 59q0 -25 -17 -42t-42 -17h-127q-49 0 -66 33l-633 1202q-3 6 -6 6q-2 0 -2 -6v-1196q0 -15 -11 -27t-26 -12h-106q-37 0 -37 25v1439q0 25 17 41.5t42 16.5h113q41 0 56 -8t28 -33l628 -1196l5 -6q2 0 2 6v1198q0 15 10.5 27t25.5 12h109q17 0 27 -11.5t10 -27.5
v-1424zM1040 1827q0 -108 -45.5 -161.5t-146.5 -53.5q-76 0 -131 43l-125 100q-37 30 -51.5 37.5t-32.5 7.5q-35 0 -49.5 -23t-14.5 -71v-43q0 -14 -10.5 -24.5t-23.5 -10.5h-64q-13 0 -23 10.5t-10 24.5v43q0 109 51.5 166t143.5 57q60 0 123 -49l145 -115q35 -28 72 -28
q32 0 46.5 19.5t14.5 70.5v47q0 14 10.5 24.5t24.5 10.5h64q13 0 22.5 -10.5t9.5 -24.5v-47z" />
    <glyph glyph-name="Ograve" unicode="&#xd2;" horiz-adv-x="1353" 
d="M1231 629q0 -167 -40.5 -292t-115.5 -201t-174 -113t-223 -37t-223.5 37t-174.5 113t-116 201t-41 292v264q0 167 41 292t116 201t174.5 113t223.5 37t223 -37t174 -113t115.5 -201t40.5 -292v-264zM1042 629v264q0 249 -94 362t-270 113q-367 0 -367 -475v-264
q0 -475 367 -475q364 0 364 475zM813 1640q0 -14 -18 -14h-111q-6 0 -10.5 1t-7.5 2t-7.5 5t-6 5.5t-7.5 8.5t-8 9l-231 258q-9 9 -9 16q0 15 23 15h135q18 0 27 -6t24 -25l199 -254q8 -8 8 -21z" />
    <glyph glyph-name="Oacute" unicode="&#xd3;" horiz-adv-x="1353" 
d="M1231 629q0 -167 -40.5 -292t-115.5 -201t-174 -113t-223 -37t-223.5 37t-174.5 113t-116 201t-41 292v264q0 167 41 292t116 201t174.5 113t223.5 37t223 -37t174 -113t115.5 -201t40.5 -292v-264zM1042 629v264q0 249 -94 362t-270 113q-367 0 -367 -475v-264
q0 -475 367 -475q364 0 364 475zM936 1931q0 -8 -8 -16l-232 -258q-2 -3 -6.5 -8t-6.5 -7l-5.5 -5.5t-6 -5t-6 -3t-7.5 -2t-9 -0.5h-110q-19 0 -19 14q0 13 8 21l201 254q11 14 16 19t13 8.5t20 3.5h135q23 0 23 -15z" />
    <glyph glyph-name="Ocircumflex" unicode="&#xd4;" horiz-adv-x="1353" 
d="M1231 629q0 -167 -40.5 -292t-115.5 -201t-174 -113t-223 -37t-223.5 37t-174.5 113t-116 201t-41 292v264q0 167 41 292t116 201t174.5 113t223.5 37t223 -37t174 -113t115.5 -201t40.5 -292v-264zM1042 629v264q0 249 -94 362t-270 113q-367 0 -367 -475v-264
q0 -475 367 -475q364 0 364 475zM1018 1642q0 -14 -19 -14h-106q-6 0 -10.5 1t-7.5 2t-7.5 5t-6 5.5t-7.5 8.5t-8 9l-168 199l-170 -199q-2 -3 -6.5 -8t-6.5 -7l-5.5 -5.5t-6 -5t-6 -3t-7.5 -2t-9 -0.5h-107q-18 0 -18 14q0 13 8 21l197 254q11 14 16 19t13 8.5t20 3.5h174
q18 0 27 -6t24 -25l195 -254q8 -8 8 -21z" />
    <glyph glyph-name="Otilde" unicode="&#xd5;" horiz-adv-x="1353" 
d="M1231 629q0 -167 -40.5 -292t-115.5 -201t-174 -113t-223 -37t-223.5 37t-174.5 113t-116 201t-41 292v264q0 167 41 292t116 201t174.5 113t223.5 37t223 -37t174 -113t115.5 -201t40.5 -292v-264zM1042 629v264q0 249 -94 362t-270 113q-367 0 -367 -475v-264
q0 -475 367 -475q364 0 364 475zM1047 1831q0 -108 -46 -161.5t-147 -53.5q-76 0 -131 43l-125 100q-37 30 -51.5 37.5t-32.5 7.5q-35 0 -49 -23t-14 -71v-43q0 -13 -10.5 -24t-24.5 -11h-64q-13 0 -23 10.5t-10 24.5v43q0 109 51.5 166t143.5 57q60 0 123 -49l145 -115
q35 -28 72 -28q32 0 46.5 19.5t14.5 70.5v47q0 14 10.5 24.5t24.5 10.5h64q13 0 23 -10.5t10 -24.5v-47z" />
    <glyph glyph-name="Odieresis" unicode="&#xd6;" horiz-adv-x="1353" 
d="M1231 629q0 -167 -40.5 -292t-115.5 -201t-174 -113t-223 -37t-223.5 37t-174.5 113t-116 201t-41 292v264q0 167 41 292t116 201t174.5 113t223.5 37t223 -37t174 -113t115.5 -201t40.5 -292v-264zM1042 629v264q0 249 -94 362t-270 113q-367 0 -367 -475v-264
q0 -475 367 -475q364 0 364 475zM938 1698q0 -17 -12.5 -28t-28.5 -11h-80q-16 0 -28.5 11t-12.5 28v166q0 15 13 28t28 13h80q15 0 28 -13t13 -28v-166zM580 1698q0 -17 -12.5 -28t-28.5 -11h-80q-16 0 -28.5 11t-12.5 28v166q0 15 13 28t28 13h80q15 0 28 -13t13 -28v-166
z" />
    <glyph glyph-name="multiply" unicode="&#xd7;" 
d="M999 498q0 -11 -10 -21l-57 -57q-10 -10 -21 -10q-16 0 -32 16l-271 270l-268 -268q-16 -16 -33 -16q-10 0 -20 10l-58 57q-10 10 -10 21q0 15 17 32l268 269l-268 270q-17 17 -17 31q0 10 10 20l58 58q10 10 22 10q17 0 31 -14l268 -271l271 271q16 16 32 16
q11 0 21 -10l57 -58q10 -10 10 -20q0 -17 -16 -33l-270 -270l270 -271q16 -16 16 -32z" />
    <glyph glyph-name="Oslash" unicode="&#xd8;" horiz-adv-x="1353" 
d="M1296 1505q0 -7 -6 -16l-145 -201q86 -153 86 -395v-264q0 -167 -40.5 -292t-115.5 -201t-174 -113t-223 -37q-234 0 -375 129l-63 -90q-29 -39 -52 -39h-108q-10 0 -16.5 6.5t-6.5 15.5q0 8 6 17l148 204q-88 151 -88 400v264q0 167 41 292t116 201t174.5 113t223.5 37
q237 0 377 -131l59 84q29 39 53 39h107q10 0 16 -7t6 -16zM946 1255q-91 113 -268 113q-367 0 -367 -475v-264q0 -118 27 -221zM1042 629v264q0 129 -24 217l-608 -848q90 -108 268 -108q176 0 270 113t94 362z" />
    <glyph glyph-name="Ugrave" unicode="&#xd9;" horiz-adv-x="1355" 
d="M1202 553q0 -287 -134.5 -427t-389.5 -140t-389.5 140t-134.5 427v930q0 16 11 27.5t28 11.5h110q16 0 27.5 -11t11.5 -28v-930q0 -207 76 -307.5t260 -100.5t260 100t76 308v930q0 16 11 27.5t28 11.5h110q16 0 27.5 -11t11.5 -28v-930zM797 1640q0 -14 -19 -14h-110
q-6 0 -10.5 1t-7.5 2t-7.5 5t-6 5.5t-7.5 8.5t-8 9l-232 258q-8 8 -8 16q0 15 22 15h136q18 0 27 -6t24 -25l198 -254q9 -9 9 -21z" />
    <glyph glyph-name="Uacute" unicode="&#xda;" horiz-adv-x="1355" 
d="M1202 553q0 -287 -134.5 -427t-389.5 -140t-389.5 140t-134.5 427v930q0 16 11 27.5t28 11.5h110q16 0 27.5 -11t11.5 -28v-930q0 -207 76 -307.5t260 -100.5t260 100t76 308v930q0 16 11 27.5t28 11.5h110q16 0 27.5 -11t11.5 -28v-930zM981 1931q0 -8 -8 -16l-232 -258
q-2 -3 -6.5 -8t-6.5 -7l-5.5 -5.5t-6 -5t-6 -3t-7.5 -2t-9 -0.5h-110q-19 0 -19 14q0 13 8 21l201 254q11 14 16 19t13 8.5t20 3.5h135q23 0 23 -15z" />
    <glyph glyph-name="Ucircumflex" unicode="&#xdb;" horiz-adv-x="1355" 
d="M1202 553q0 -287 -134.5 -427t-389.5 -140t-389.5 140t-134.5 427v930q0 16 11 27.5t28 11.5h110q16 0 27.5 -11t11.5 -28v-930q0 -207 76 -307.5t260 -100.5t260 100t76 308v930q0 16 11 27.5t28 11.5h110q16 0 27.5 -11t11.5 -28v-930zM1012 1640q0 -14 -19 -14h-106
q-6 0 -10.5 1t-7.5 2t-7.5 5t-6 5.5t-7.5 8.5t-8 9l-168 198l-170 -198q-2 -3 -6.5 -8t-6.5 -7l-5.5 -5.5t-6 -5t-6 -3t-7.5 -2t-9 -0.5h-107q-18 0 -18 14q0 13 8 21l197 254q11 14 16 19t13 8.5t20 3.5h174q18 0 27 -6t24 -25l195 -254q8 -8 8 -21z" />
    <glyph glyph-name="Udieresis" unicode="&#xdc;" horiz-adv-x="1355" 
d="M1202 553q0 -287 -134.5 -427t-389.5 -140t-389.5 140t-134.5 427v930q0 16 11 27.5t28 11.5h110q16 0 27.5 -11t11.5 -28v-930q0 -207 76 -307.5t260 -100.5t260 100t76 308v930q0 16 11 27.5t28 11.5h110q16 0 27.5 -11t11.5 -28v-930zM934 1698q0 -17 -12.5 -28
t-28.5 -11h-80q-16 0 -28.5 11t-12.5 28v166q0 15 13 28t28 13h80q15 0 28 -13t13 -28v-166zM575 1698q0 -17 -12 -28t-28 -11h-80q-16 0 -28.5 11t-12.5 28v166q0 15 13 28t28 13h80q15 0 27.5 -13t12.5 -28v-166z" />
    <glyph glyph-name="Yacute" unicode="&#xdd;" horiz-adv-x="1193" 
d="M1124 1493q0 -11 -6 -23l-317 -712q-49 -108 -111 -135v-582q0 -15 -11 -28t-26 -13h-112q-15 0 -26 13t-11 28v582q-60 23 -111 135l-315 712q-6 12 -6 23q0 12 9.5 20.5t24.5 8.5h125q10 0 21 -9t16 -20l283 -664q23 -53 47 -53q12 0 22.5 10.5t24.5 42.5l285 664
q12 29 35 29h125q15 0 24.5 -8.5t9.5 -20.5zM897 1931q0 -8 -8 -16l-232 -258q-2 -3 -6.5 -8t-6.5 -7l-5.5 -5.5t-6 -5t-6 -3t-7.5 -2t-9 -0.5h-110q-19 0 -19 14q0 13 8 21l201 254q11 14 16 19t13 8.5t20 3.5h135q23 0 23 -15z" />
    <glyph glyph-name="Thorn" unicode="&#xde;" horiz-adv-x="1214" 
d="M1122 872q0 -462 -575 -462q-117 0 -203 6v-375q0 -16 -9.5 -28.5t-23.5 -12.5h-114q-15 0 -26 13t-11 28v1442q0 15 11 27t26 12h112q15 0 25 -12t10 -27v-142q186 7 199 7q130 0 232.5 -24t182 -75.5t122 -139t42.5 -208.5v-29zM936 872v29q0 155 -95.5 220t-293.5 65
q-158 0 -203 -4v-607q141 -6 203 -6q201 0 295 71t94 232z" />
    <glyph glyph-name="germandbls" unicode="&#xdf;" horiz-adv-x="1189" 
d="M1079 440q0 -118 -39 -207t-107.5 -142t-153.5 -79t-185 -26q-36 0 -98 6q-18 2 -29.5 12t-11.5 27v84q0 22 22 22q14 0 46.5 -1t41.5 -1q78 0 135.5 14.5t103.5 48t69.5 94t23.5 148.5v29q0 117 -82.5 189.5t-234.5 72.5h-76q-17 0 -29 12t-12 29v59q0 17 12 29t29 12
h76q145 0 215.5 71.5t70.5 178.5v25q0 117 -66 182.5t-202 65.5q-144 0 -213.5 -82.5t-69.5 -259.5v-1010q0 -18 -9.5 -30.5t-26.5 -12.5h-109q-17 0 -27 12.5t-10 30.5v1010q0 250 122.5 374.5t342.5 124.5q205 0 327 -100.5t122 -304.5v-25q0 -106 -61.5 -190.5
t-154.5 -124.5q111 -40 179.5 -129.5t68.5 -208.5v-29z" />
    <glyph glyph-name="agrave" unicode="&#xe0;" horiz-adv-x="1062" 
d="M924 41q0 -17 -12 -29t-29 -12h-95q-17 0 -28.5 12t-11.5 29v45q-172 -100 -316 -100q-69 0 -126 16.5t-105.5 52.5t-75.5 103t-27 159v25q0 171 113.5 251.5t380.5 80.5h151v82q0 128 -49 179.5t-170 51.5q-149 0 -313 -16h-10q-37 0 -37 33v71q0 33 43 39
q162 27 317 27q208 0 304 -98.5t96 -286.5v-715zM743 215v330h-151q-182 0 -247.5 -44.5t-65.5 -156.5v-25q0 -105 46.5 -145.5t141.5 -40.5q124 0 276 82zM664 1290q0 -14 -19 -14h-110q-11 0 -20 5t-11.5 7.5t-16.5 18.5l-231 258q-8 8 -8 16q0 14 22 14h136q18 0 27.5 -6
t23.5 -24l198 -254q9 -9 9 -21z" />
    <glyph glyph-name="aacute" unicode="&#xe1;" horiz-adv-x="1062" 
d="M924 41q0 -17 -12 -29t-29 -12h-95q-17 0 -28.5 12t-11.5 29v45q-172 -100 -316 -100q-69 0 -126 16.5t-105.5 52.5t-75.5 103t-27 159v25q0 171 113.5 251.5t380.5 80.5h151v82q0 128 -49 179.5t-170 51.5q-149 0 -313 -16h-10q-37 0 -37 33v71q0 33 43 39
q162 27 317 27q208 0 304 -98.5t96 -286.5v-715zM743 215v330h-151q-182 0 -247.5 -44.5t-65.5 -156.5v-25q0 -105 46.5 -145.5t141.5 -40.5q124 0 276 82zM844 1581q0 -8 -8 -16l-232 -258q-2 -3 -6.5 -8t-6.5 -7l-5.5 -5.5t-6 -5t-6 -3t-7.5 -2t-9 -0.5h-111q-18 0 -18 14
q0 13 8 21l201 254q15 19 23 24.5t26 5.5h135q23 0 23 -14z" />
    <glyph glyph-name="acircumflex" unicode="&#xe2;" horiz-adv-x="1062" 
d="M924 41q0 -17 -12 -29t-29 -12h-95q-17 0 -28.5 12t-11.5 29v45q-172 -100 -316 -100q-69 0 -126 16.5t-105.5 52.5t-75.5 103t-27 159v25q0 171 113.5 251.5t380.5 80.5h151v82q0 128 -49 179.5t-170 51.5q-149 0 -313 -16h-10q-37 0 -37 33v71q0 33 43 39
q162 27 317 27q208 0 304 -98.5t96 -286.5v-715zM743 215v330h-151q-182 0 -247.5 -44.5t-65.5 -156.5v-25q0 -105 46.5 -145.5t141.5 -40.5q124 0 276 82zM870 1290q0 -14 -18 -14h-107q-6 0 -10.5 1t-7.5 2t-7.5 5t-6 5.5t-7.5 8.5t-8 9l-168 198l-170 -198q-2 -3 -6.5 -8
t-6.5 -7l-5.5 -5.5t-6 -5t-6 -3t-7.5 -2t-9 -0.5h-106q-19 0 -19 14q0 12 9 21l196 254q15 19 23 24.5t26 5.5h174q18 0 28 -6t24 -24l194 -254q8 -8 8 -21z" />
    <glyph glyph-name="atilde" unicode="&#xe3;" horiz-adv-x="1062" 
d="M924 41q0 -17 -12 -29t-29 -12h-95q-17 0 -28.5 12t-11.5 29v45q-172 -100 -316 -100q-69 0 -126 16.5t-105.5 52.5t-75.5 103t-27 159v25q0 171 113.5 251.5t380.5 80.5h151v82q0 128 -49 179.5t-170 51.5q-149 0 -313 -16h-10q-37 0 -37 33v71q0 33 43 39
q162 27 317 27q208 0 304 -98.5t96 -286.5v-715zM743 215v330h-151q-182 0 -247.5 -44.5t-65.5 -156.5v-25q0 -105 46.5 -145.5t141.5 -40.5q124 0 276 82zM913 1497q0 -108 -45.5 -161.5t-146.5 -53.5q-76 0 -131 43l-125 100q-37 30 -51.5 37.5t-32.5 7.5q-35 0 -49.5 -23
t-14.5 -71v-43q0 -14 -10.5 -24.5t-23.5 -10.5h-64q-13 0 -23 10.5t-10 24.5v43q0 109 51.5 166t143.5 57q60 0 123 -49l145 -114q15 -12 36.5 -20.5t35.5 -8.5q32 0 46.5 19.5t14.5 70.5v47q0 14 11 24.5t24 10.5h64q13 0 22.5 -10.5t9.5 -24.5v-47z" />
    <glyph glyph-name="adieresis" unicode="&#xe4;" horiz-adv-x="1062" 
d="M924 41q0 -17 -12 -29t-29 -12h-95q-17 0 -28.5 12t-11.5 29v45q-172 -100 -316 -100q-69 0 -126 16.5t-105.5 52.5t-75.5 103t-27 159v25q0 171 113.5 251.5t380.5 80.5h151v82q0 128 -49 179.5t-170 51.5q-149 0 -313 -16h-10q-37 0 -37 33v71q0 33 43 39
q162 27 317 27q208 0 304 -98.5t96 -286.5v-715zM743 215v330h-151q-182 0 -247.5 -44.5t-65.5 -156.5v-25q0 -105 46.5 -145.5t141.5 -40.5q124 0 276 82zM795 1352q0 -17 -12.5 -28t-28.5 -11h-80q-16 0 -28.5 11t-12.5 28v166q0 15 13 28t28 13h80q15 0 28 -13t13 -28
v-166zM436 1352q0 -17 -12.5 -28t-28.5 -11h-80q-16 0 -28.5 11t-12.5 28v166q0 15 13 28t28 13h80q15 0 28 -13t13 -28v-166z" />
    <glyph glyph-name="aring" unicode="&#xe5;" horiz-adv-x="1062" 
d="M924 41q0 -17 -12 -29t-29 -12h-95q-17 0 -28.5 12t-11.5 29v45q-172 -100 -316 -100q-69 0 -126 16.5t-105.5 52.5t-75.5 103t-27 159v25q0 171 113.5 251.5t380.5 80.5h151v82q0 128 -49 179.5t-170 51.5q-149 0 -313 -16h-10q-37 0 -37 33v71q0 33 43 39
q162 27 317 27q208 0 304 -98.5t96 -286.5v-715zM743 215v330h-151q-182 0 -247.5 -44.5t-65.5 -156.5v-25q0 -105 46.5 -145.5t141.5 -40.5q124 0 276 82zM733 1440q0 -86 -60.5 -146.5t-146.5 -60.5t-147.5 60.5t-61.5 146.5t61.5 147.5t147.5 61.5t146.5 -61.5
t60.5 -147.5zM635 1442q0 44 -32 75t-77 31q-44 0 -75 -31t-31 -75q0 -45 31 -77t75 -32t76.5 32.5t32.5 76.5z" />
    <glyph glyph-name="ae" unicode="&#xe6;" horiz-adv-x="1746" 
d="M1645 551q0 -21 -10.5 -33t-28.5 -12h-682v-66q0 -157 72.5 -230t226.5 -73q155 0 350 29h4h6q33 0 33 -29v-69q0 -21 -8.5 -32.5t-32.5 -15.5q-173 -34 -363 -34q-124 0 -207 26.5t-147 93.5q-68 -59 -165.5 -89.5t-203.5 -30.5q-79 0 -147.5 19.5t-124 59t-87.5 106
t-32 153.5v18q0 173 113 252.5t381 79.5h153v82q0 128 -50 179.5t-171 51.5q-149 0 -313 -16h-4h-6q-37 0 -37 33v71q0 33 43 39q162 27 317 27q245 0 340 -144q122 144 334 144q217 0 332 -138.5t115 -365.5v-86zM1466 643v10q0 334 -268 334q-131 0 -202.5 -87.5
t-71.5 -246.5v-10h542zM745 193v350h-153q-124 0 -191.5 -21t-93.5 -62.5t-26 -117.5v-18q0 -102 65 -148.5t168 -46.5q146 0 231 64z" />
    <glyph glyph-name="ccedilla" unicode="&#xe7;" horiz-adv-x="925" 
d="M836 53q0 -21 -8.5 -31t-32.5 -14q-125 -22 -256 -22q-207 0 -322 134t-115 363v160q0 229 114.5 363.5t322.5 134.5q126 0 256 -23q24 -4 32.5 -13.5t8.5 -31.5v-74q0 -14 -10 -22t-25 -8h-8q-126 14 -254 14q-256 0 -256 -340v-160q0 -340 256 -340q119 0 254 15h8
q14 0 24.5 -8.5t10.5 -22.5v-74zM659 -80q0 -8 -8 -16l-231 -258q-2 -3 -6.5 -8t-6.5 -7l-5.5 -5.5t-6 -5t-6 -3t-7.5 -2t-9 -0.5h-111q-18 0 -18 14q0 13 8 21l199 254q14 18 23.5 24t27.5 6h135q22 0 22 -14z" />
    <glyph glyph-name="egrave" unicode="&#xe8;" horiz-adv-x="1114" 
d="M1008 551q0 -21 -10.5 -33t-28.5 -12h-686v-29q0 -179 69.5 -256.5t214.5 -77.5q211 0 365 23h10q13 0 23 -7.5t10 -21.5v-69q0 -21 -8.5 -32.5t-32.5 -15.5q-173 -34 -367 -34q-75 0 -139.5 14t-125.5 49.5t-104.5 90t-69.5 140.5t-26 197v185q0 223 119 351t336 128
q220 0 335.5 -128t115.5 -351v-111zM825 643v19q0 170 -65 245.5t-203 75.5q-274 0 -274 -321v-19h542zM733 1290q0 -14 -18 -14h-111q-6 0 -10.5 1t-7.5 2t-7.5 5t-6 5.5t-7.5 8.5t-8 9l-231 258q-9 9 -9 16q0 14 23 14h135q18 0 27.5 -6t23.5 -24l199 -254q8 -8 8 -21z
" />
    <glyph glyph-name="eacute" unicode="&#xe9;" horiz-adv-x="1114" 
d="M1008 551q0 -21 -10.5 -33t-28.5 -12h-686v-29q0 -179 69.5 -256.5t214.5 -77.5q211 0 365 23h10q13 0 23 -7.5t10 -21.5v-69q0 -21 -8.5 -32.5t-32.5 -15.5q-173 -34 -367 -34q-75 0 -139.5 14t-125.5 49.5t-104.5 90t-69.5 140.5t-26 197v185q0 223 119 351t336 128
q220 0 335.5 -128t115.5 -351v-111zM825 643v19q0 170 -65 245.5t-203 75.5q-274 0 -274 -321v-19h542zM889 1581q0 -8 -8 -16l-232 -258q-2 -3 -6.5 -8t-6.5 -7l-5.5 -5.5t-6 -5t-6 -3t-7.5 -2t-9 -0.5h-110q-19 0 -19 14q0 13 8 21l201 254q15 19 23 24.5t26 5.5h135
q23 0 23 -14z" />
    <glyph glyph-name="ecircumflex" unicode="&#xea;" horiz-adv-x="1114" 
d="M1008 551q0 -21 -10.5 -33t-28.5 -12h-686v-29q0 -179 69.5 -256.5t214.5 -77.5q211 0 365 23h10q13 0 23 -7.5t10 -21.5v-69q0 -21 -8.5 -32.5t-32.5 -15.5q-173 -34 -367 -34q-75 0 -139.5 14t-125.5 49.5t-104.5 90t-69.5 140.5t-26 197v185q0 223 119 351t336 128
q220 0 335.5 -128t115.5 -351v-111zM825 643v19q0 170 -65 245.5t-203 75.5q-274 0 -274 -321v-19h542zM899 1290q0 -14 -18 -14h-107q-6 0 -10.5 1t-7.5 2t-7.5 5t-6 5.5t-7.5 8.5t-8 9l-168 198l-170 -198q-2 -3 -6.5 -8t-6.5 -7l-5.5 -5.5t-6 -5t-6 -3t-7.5 -2t-9 -0.5
h-106q-19 0 -19 14q0 13 8 21l197 254q15 19 23 24.5t26 5.5h174q18 0 27.5 -6t23.5 -24l195 -254q8 -8 8 -21z" />
    <glyph glyph-name="edieresis" unicode="&#xeb;" horiz-adv-x="1114" 
d="M1008 551q0 -21 -10.5 -33t-28.5 -12h-686v-29q0 -179 69.5 -256.5t214.5 -77.5q211 0 365 23h10q13 0 23 -7.5t10 -21.5v-69q0 -21 -8.5 -32.5t-32.5 -15.5q-173 -34 -367 -34q-75 0 -139.5 14t-125.5 49.5t-104.5 90t-69.5 140.5t-26 197v185q0 223 119 351t336 128
q220 0 335.5 -128t115.5 -351v-111zM825 643v19q0 170 -65 245.5t-203 75.5q-274 0 -274 -321v-19h542zM825 1352q0 -17 -12.5 -28t-28.5 -11h-79q-16 0 -28.5 11t-12.5 28v166q0 15 13 28t28 13h79q15 0 28 -13t13 -28v-166zM467 1352q0 -17 -12.5 -28t-28.5 -11h-80
q-16 0 -28.5 11t-12.5 28v166q0 15 13 28t28 13h80q15 0 28 -13t13 -28v-166z" />
    <glyph glyph-name="igrave" unicode="&#xec;" horiz-adv-x="505" 
d="M342 41q0 -17 -12 -29t-29 -12h-98q-17 0 -29 12t-12 29v1044q0 17 12 29t29 12h98q17 0 29 -12t12 -29v-1044zM379 1290q0 -14 -19 -14h-110q-6 0 -10.5 1t-7.5 2t-7.5 5t-6 5.5t-7.5 8.5t-8 9l-232 258q-8 8 -8 16q0 14 23 14h135q18 0 27.5 -6t23.5 -24l199 -254
q8 -8 8 -21z" />
    <glyph glyph-name="iacute" unicode="&#xed;" horiz-adv-x="505" 
d="M342 41q0 -17 -12 -29t-29 -12h-98q-17 0 -29 12t-12 29v1044q0 17 12 29t29 12h98q17 0 29 -12t12 -29v-1044zM555 1581q0 -8 -8 -16l-232 -258q-2 -3 -6.5 -8t-6.5 -7l-5.5 -5.5t-6 -5t-6 -3t-7.5 -2t-9 -0.5h-110q-19 0 -19 14q0 13 8 21l201 254q15 19 23 24.5
t26 5.5h135q23 0 23 -14z" />
    <glyph glyph-name="icircumflex" unicode="&#xee;" horiz-adv-x="505" 
d="M342 41q0 -17 -12 -29t-29 -12h-98q-17 0 -29 12t-12 29v1044q0 17 12 29t29 12h98q17 0 29 -12t12 -29v-1044zM592 1290q0 -14 -19 -14h-106q-6 0 -10.5 1t-7.5 2t-7.5 5t-6 5.5t-7.5 8.5t-8 9l-168 198l-170 -198q-2 -3 -6.5 -8t-6.5 -7l-5.5 -5.5t-6 -5t-6 -3t-7.5 -2
t-9 -0.5h-107q-18 0 -18 14q0 13 8 21l197 254q15 19 23 24.5t26 5.5h174q18 0 27.5 -6t23.5 -24l195 -254q8 -8 8 -21z" />
    <glyph glyph-name="idieresis" unicode="&#xef;" horiz-adv-x="505" 
d="M342 41q0 -17 -12 -29t-29 -12h-98q-17 0 -29 12t-12 29v1044q0 17 12 29t29 12h98q17 0 29 -12t12 -29v-1044zM512 1352q0 -17 -12.5 -28t-28.5 -11h-80q-16 0 -28.5 11t-12.5 28v166q0 15 13 28t28 13h80q15 0 28 -13t13 -28v-166zM154 1352q0 -17 -12.5 -28t-28.5 -11
h-80q-16 0 -28.5 11t-12.5 28v166q0 15 13 28t28 13h80q15 0 28 -13t13 -28v-166z" />
    <glyph glyph-name="eth" unicode="&#xf0;" horiz-adv-x="1116" 
d="M1014 498q0 -249 -115 -380.5t-338 -131.5q-228 0 -343.5 134.5t-115.5 377.5v112q0 248 117.5 380t339.5 132q147 0 229 -73q-66 170 -301 280l-176 -135q-15 -12 -26 -12t-23 12l-35 39q-6 6 -6 14q0 18 21 35l125 96q-98 32 -162 45q-33 8 -33 31q0 6 2 10l25 70
q7 22 28 22q11 0 17 -2q160 -39 254 -75l192 145q11 8 27 8q14 0 24 -10l35 -37q8 -8 8 -16q0 -12 -20 -29l-150 -115q117 -67 194.5 -144.5t123 -178t64 -217t18.5 -275.5v-112zM834 498v112q0 177 -65.5 268t-209.5 91t-209 -91t-65 -268v-112q0 -177 66 -267t210 -90
t208.5 90t64.5 267z" />
    <glyph glyph-name="ntilde" unicode="&#xf1;" horiz-adv-x="1140" 
d="M1001 41q0 -17 -11.5 -29t-28.5 -12h-99q-17 0 -29 12t-12 29v674q0 151 -52.5 210.5t-172.5 59.5q-117 0 -277 -80v-864q0 -16 -11.5 -28.5t-28.5 -12.5h-101q-15 0 -27 12t-12 29v1044q0 17 11 29t28 12h103q17 0 27.5 -11.5t10.5 -29.5v-38q88 49 163 71.5t163 22.5
q356 0 356 -426v-674zM942 1497q0 -108 -45.5 -161.5t-146.5 -53.5q-77 0 -132 43l-124 100q-37 30 -51.5 37.5t-32.5 7.5q-35 0 -49.5 -23t-14.5 -71v-43q0 -13 -11 -24t-24 -11h-63q-13 0 -23 10.5t-10 24.5v43q0 109 51.5 166t143.5 57q59 0 122 -49l146 -114
q15 -12 36.5 -20.5t35.5 -8.5q32 0 46.5 19.5t14.5 70.5v47q0 14 10.5 24.5t24.5 10.5h63q13 0 23 -10.5t10 -24.5v-47z" />
    <glyph glyph-name="ograve" unicode="&#xf2;" horiz-adv-x="1116" 
d="M1014 485q0 -231 -118 -365t-339 -134t-338 134t-117 365v156q0 231 117 365.5t338 134.5t339 -134.5t118 -365.5v-156zM834 485v156q0 162 -68.5 252t-208.5 90q-139 0 -206.5 -89.5t-67.5 -252.5v-156q0 -163 67 -252.5t207 -89.5q139 0 208 89.5t69 252.5zM676 1290
q0 -14 -19 -14h-110q-6 0 -10.5 1t-7.5 2t-7.5 5t-6 5.5t-7.5 8.5t-8 9l-232 258q-8 8 -8 16q0 14 23 14h135q18 0 27.5 -6t23.5 -24l199 -254q8 -8 8 -21z" />
    <glyph glyph-name="oacute" unicode="&#xf3;" horiz-adv-x="1116" 
d="M1014 485q0 -231 -118 -365t-339 -134t-338 134t-117 365v156q0 231 117 365.5t338 134.5t339 -134.5t118 -365.5v-156zM834 485v156q0 162 -68.5 252t-208.5 90q-139 0 -206.5 -89.5t-67.5 -252.5v-156q0 -163 67 -252.5t207 -89.5q139 0 208 89.5t69 252.5zM872 1581
q0 -8 -8 -16l-231 -258q-2 -3 -6.5 -8t-6.5 -7l-5.5 -5.5t-6 -5t-6 -3t-7.5 -2t-9 -0.5h-111q-18 0 -18 14q0 13 8 21l201 254q15 19 23 24.5t26 5.5h135q22 0 22 -14z" />
    <glyph glyph-name="ocircumflex" unicode="&#xf4;" horiz-adv-x="1116" 
d="M1014 485q0 -231 -118 -365t-339 -134t-338 134t-117 365v156q0 231 117 365.5t338 134.5t339 -134.5t118 -365.5v-156zM834 485v156q0 162 -68.5 252t-208.5 90q-139 0 -206.5 -89.5t-67.5 -252.5v-156q0 -163 67 -252.5t207 -89.5q139 0 208 89.5t69 252.5zM901 1290
q0 -14 -18 -14h-107q-6 0 -10.5 1t-7.5 2t-7.5 5t-6 5.5t-7.5 8.5t-8 9l-168 198l-170 -198q-2 -3 -6.5 -8t-6.5 -7l-5.5 -5.5t-6 -5t-6 -3t-7.5 -2t-9 -0.5h-106q-19 0 -19 14q0 13 8 21l197 254q15 19 23 24.5t26 5.5h174q18 0 27.5 -6t23.5 -24l195 -254q8 -8 8 -21z" />
    <glyph glyph-name="otilde" unicode="&#xf5;" horiz-adv-x="1116" 
d="M1014 485q0 -231 -118 -365t-339 -134t-338 134t-117 365v156q0 231 117 365.5t338 134.5t339 -134.5t118 -365.5v-156zM834 485v156q0 162 -68.5 252t-208.5 90q-139 0 -206.5 -89.5t-67.5 -252.5v-156q0 -163 67 -252.5t207 -89.5q139 0 208 89.5t69 252.5zM934 1497
q0 -108 -46 -161.5t-147 -53.5q-76 0 -131 43l-125 100q-37 30 -51.5 37.5t-32.5 7.5q-35 0 -49 -23t-14 -71v-43q0 -13 -11 -24t-24 -11h-63q-13 0 -23 10.5t-10 24.5v43q0 109 51 166t143 57q60 0 123 -49l146 -114q36 -29 71 -29q32 0 47 19.5t15 70.5v47q0 14 10.5 24.5
t24.5 10.5h63q13 0 23 -10.5t10 -24.5v-47z" />
    <glyph glyph-name="odieresis" unicode="&#xf6;" horiz-adv-x="1116" 
d="M1014 485q0 -231 -118 -365t-339 -134t-338 134t-117 365v156q0 231 117 365.5t338 134.5t339 -134.5t118 -365.5v-156zM834 485v156q0 162 -68.5 252t-208.5 90q-139 0 -206.5 -89.5t-67.5 -252.5v-156q0 -163 67 -252.5t207 -89.5q139 0 208 89.5t69 252.5zM815 1352
q0 -17 -12.5 -28t-28.5 -11h-80q-16 0 -28.5 11t-12.5 28v166q0 15 13 28t28 13h80q15 0 28 -13t13 -28v-166zM457 1352q0 -17 -12.5 -28t-28.5 -11h-80q-16 0 -28.5 11t-12.5 28v166q0 15 13 28t28 13h80q15 0 28 -13t13 -28v-166z" />
    <glyph glyph-name="divide" unicode="&#xf7;" 
d="M707 1079q0 -17 -12 -29t-27 -12h-99q-16 0 -28.5 12t-12.5 29v181q0 15 13 26.5t28 11.5h99q15 0 27 -11.5t12 -26.5v-181zM1055 760q0 -33 -41 -33h-789q-41 0 -41 33v82q0 32 41 32h789q41 0 41 -32v-82zM707 332q0 -17 -11.5 -28t-27.5 -11h-99q-16 0 -28.5 11
t-12.5 28v182q0 15 13 27t28 12h99q15 0 27 -12t12 -27v-182z" />
    <glyph glyph-name="oslash" unicode="&#xf8;" horiz-adv-x="1116" 
d="M1081 1178q0 -15 -8 -23l-143 -192q84 -128 84 -322v-156q0 -231 -118 -365t-339 -134q-172 0 -285 86l-90 -123q-16 -21 -32 -21h-101q-16 0 -16 17q0 14 8 22l145 197q-84 128 -84 321v156q0 231 117 365.5t338 134.5q174 0 287 -86l86 119q16 20 33 20h102
q16 0 16 -16zM741 920q-69 63 -184 63q-274 0 -274 -342v-156q0 -94 20 -161zM834 485v156q0 83 -23 160l-438 -594q67 -64 184 -64q141 0 209 89.5t68 252.5z" />
    <glyph glyph-name="ugrave" unicode="&#xf9;" horiz-adv-x="1140" 
d="M1001 41q0 -18 -10.5 -29.5t-27.5 -11.5h-103q-17 0 -28 12t-11 29v39q-88 -49 -162.5 -71.5t-162.5 -22.5q-357 0 -357 426v673q0 17 12 29t29 12h99q17 0 28.5 -12t11.5 -29v-673q0 -151 53 -211t173 -60q116 0 276 80v864q0 16 12 28.5t29 12.5h101q15 0 26.5 -12
t11.5 -29v-1044zM688 1290q0 -14 -18 -14h-111q-6 0 -10.5 1t-7.5 2t-7.5 5t-6 5.5t-7.5 8.5t-8 9l-231 258q-9 9 -9 16q0 14 23 14h135q18 0 27.5 -6t23.5 -24l199 -254q8 -8 8 -21z" />
    <glyph glyph-name="uacute" unicode="&#xfa;" horiz-adv-x="1140" 
d="M1001 41q0 -18 -10.5 -29.5t-27.5 -11.5h-103q-17 0 -28 12t-11 29v39q-88 -49 -162.5 -71.5t-162.5 -22.5q-357 0 -357 426v673q0 17 12 29t29 12h99q17 0 28.5 -12t11.5 -29v-673q0 -151 53 -211t173 -60q116 0 276 80v864q0 16 12 28.5t29 12.5h101q15 0 26.5 -12
t11.5 -29v-1044zM889 1581q0 -8 -8 -16l-232 -258q-2 -3 -6.5 -8t-6.5 -7l-5.5 -5.5t-6 -5t-6 -3t-7.5 -2t-9 -0.5h-110q-19 0 -19 14q0 13 8 21l201 254q15 19 23 24.5t26 5.5h135q23 0 23 -14z" />
    <glyph glyph-name="ucircumflex" unicode="&#xfb;" horiz-adv-x="1140" 
d="M1001 41q0 -18 -10.5 -29.5t-27.5 -11.5h-103q-17 0 -28 12t-11 29v39q-88 -49 -162.5 -71.5t-162.5 -22.5q-357 0 -357 426v673q0 17 12 29t29 12h99q17 0 28.5 -12t11.5 -29v-673q0 -151 53 -211t173 -60q116 0 276 80v864q0 16 12 28.5t29 12.5h101q15 0 26.5 -12
t11.5 -29v-1044zM913 1290q0 -14 -18 -14h-107q-6 0 -10.5 1t-7.5 2t-7.5 5t-6 5.5t-7.5 8.5t-8 9l-168 198l-170 -198q-2 -3 -6.5 -8t-6.5 -7l-5.5 -5.5t-6 -5t-6 -3t-7.5 -2t-9 -0.5h-106q-19 0 -19 14q0 12 9 21l196 254q15 19 23 24.5t26 5.5h174q18 0 28 -6t24 -24
l194 -254q8 -8 8 -21z" />
    <glyph glyph-name="udieresis" unicode="&#xfc;" horiz-adv-x="1140" 
d="M1001 41q0 -18 -10.5 -29.5t-27.5 -11.5h-103q-17 0 -28 12t-11 29v39q-88 -49 -162.5 -71.5t-162.5 -22.5q-357 0 -357 426v673q0 17 12 29t29 12h99q17 0 28.5 -12t11.5 -29v-673q0 -151 53 -211t173 -60q116 0 276 80v864q0 16 12 28.5t29 12.5h101q15 0 26.5 -12
t11.5 -29v-1044zM829 1352q0 -17 -12.5 -28t-28.5 -11h-79q-16 0 -28.5 11t-12.5 28v166q0 15 13 28t28 13h79q15 0 28 -13t13 -28v-166zM471 1352q0 -17 -12.5 -28t-28.5 -11h-80q-16 0 -28.5 11t-12.5 28v166q0 15 13 28t28 13h80q15 0 28 -13t13 -28v-166z" />
    <glyph glyph-name="yacute" unicode="&#xfd;" horiz-adv-x="1093" 
d="M1014 1092q0 -11 -2 -15l-338 -1179q-33 -116 -73.5 -178.5t-112 -94t-189.5 -31.5q-90 0 -172 19q-43 10 -43 33v75q0 33 39 33h6q135 -12 182 -12q91 0 134.5 35t68.5 139l21 84h-29q-26 0 -45 4.5t-39.5 18t-37.5 43t-30 75.5l-272 936q-2 4 -2 15q0 34 37 34h112
q12 0 22 -9.5t13 -22.5l242 -889q7 -28 16.5 -36.5t22.5 -8.5h33l249 936q3 12 14.5 21t24.5 9h115q15 0 24 -9.5t9 -24.5zM913 1581q0 -8 -8 -16l-231 -258q-2 -3 -6.5 -8t-6.5 -7l-5.5 -5.5t-6 -5t-6 -3t-7.5 -2t-9 -0.5h-111q-18 0 -18 14q0 13 8 21l201 254
q15 19 23 24.5t26 5.5h135q22 0 22 -14z" />
    <glyph glyph-name="thorn" unicode="&#xfe;" horiz-adv-x="1107" 
d="M1006 487q0 -244 -112.5 -372.5t-334.5 -128.5q-114 0 -240 22v-370q0 -16 -10.5 -27.5t-27.5 -11.5h-105q-15 0 -26 11t-11 28v1861q0 17 12 29t29 12h99q17 0 28.5 -12t11.5 -29v-379q140 21 240 21q224 0 335.5 -134t111.5 -372v-148zM825 487v148q0 172 -60.5 263
t-205.5 91q-126 0 -240 -20v-811q119 -21 240 -21q144 0 205 88.5t61 261.5z" />
    <glyph glyph-name="ydieresis" unicode="&#xff;" horiz-adv-x="1093" 
d="M1014 1092q0 -11 -2 -15l-338 -1179q-33 -116 -73.5 -178.5t-112 -94t-189.5 -31.5q-90 0 -172 19q-43 10 -43 33v75q0 33 39 33h6q135 -12 182 -12q91 0 134.5 35t68.5 139l21 84h-29q-26 0 -45 4.5t-39.5 18t-37.5 43t-30 75.5l-272 936q-2 4 -2 15q0 34 37 34h112
q12 0 22 -9.5t13 -22.5l242 -889q7 -28 16.5 -36.5t22.5 -8.5h33l249 936q3 12 14.5 21t24.5 9h115q15 0 24 -9.5t9 -24.5zM827 1352q0 -17 -12.5 -28t-28.5 -11h-79q-16 0 -28.5 11t-12.5 28v166q0 15 13 28t28 13h79q15 0 28 -13t13 -28v-166zM469 1352q0 -17 -12.5 -28
t-28.5 -11h-80q-16 0 -28.5 11t-12.5 28v166q0 15 13 28t28 13h80q15 0 28 -13t13 -28v-166z" />
    <glyph glyph-name="Amacron" unicode="&#x100;" horiz-adv-x="1296" 
d="M1237 33q0 -14 -9 -23.5t-26 -9.5h-121q-26 0 -34 31l-134 471h-530l-131 -471q-3 -12 -14 -21.5t-23 -9.5h-121q-15 0 -25 9.5t-10 23.5q0 10 2 14l379 1333q24 85 81.5 120.5t127.5 35.5q69 0 126 -34.5t81 -119.5l379 -1335q2 -4 2 -14zM874 664l-186 673
q-10 37 -39 37q-31 0 -41 -37l-186 -673h452zM979 1712q0 -17 -11.5 -26t-29.5 -9h-590q-18 0 -29.5 9t-11.5 26v70q0 17 11.5 26t29.5 9h590q18 0 29.5 -9t11.5 -26v-70z" />
    <glyph glyph-name="amacron" unicode="&#x101;" horiz-adv-x="1062" 
d="M924 41q0 -17 -12 -29t-29 -12h-95q-17 0 -28.5 12t-11.5 29v45q-172 -100 -316 -100q-69 0 -126 16.5t-105.5 52.5t-75.5 103t-27 159v25q0 171 113.5 251.5t380.5 80.5h151v82q0 128 -49 179.5t-170 51.5q-149 0 -313 -16h-10q-37 0 -37 33v71q0 33 43 39
q162 27 317 27q208 0 304 -98.5t96 -286.5v-715zM743 215v330h-151q-182 0 -247.5 -44.5t-65.5 -156.5v-25q0 -105 46.5 -145.5t141.5 -40.5q124 0 276 82zM868 1364q0 -17 -11.5 -26t-29.5 -9h-589q-18 0 -29.5 9t-11.5 26v70q0 34 41 34h589q41 0 41 -34v-70z" />
    <glyph glyph-name="Abreve" unicode="&#x102;" horiz-adv-x="1296" 
d="M1237 33q0 -14 -9 -23.5t-26 -9.5h-121q-26 0 -34 31l-134 471h-530l-131 -471q-3 -12 -14 -21.5t-23 -9.5h-121q-15 0 -25 9.5t-10 23.5q0 10 2 14l379 1333q24 85 81.5 120.5t127.5 35.5q69 0 126 -34.5t81 -119.5l379 -1335q2 -4 2 -14zM874 664l-186 673
q-10 37 -39 37q-31 0 -41 -37l-186 -673h452zM977 1919v-8q-10 -135 -108 -212t-226 -77t-226 77t-108 212v8q0 27 23 27h76q16 0 22 -7.5t8 -25.5q9 -79 68 -121.5t137 -42.5t137 42.5t68 121.5q2 18 8 25.5t23 7.5h75q23 0 23 -27z" />
    <glyph glyph-name="abreve" unicode="&#x103;" horiz-adv-x="1062" 
d="M924 41q0 -17 -12 -29t-29 -12h-95q-17 0 -28.5 12t-11.5 29v45q-172 -100 -316 -100q-69 0 -126 16.5t-105.5 52.5t-75.5 103t-27 159v25q0 171 113.5 251.5t380.5 80.5h151v82q0 128 -49 179.5t-170 51.5q-149 0 -313 -16h-10q-37 0 -37 33v71q0 33 43 39
q162 27 317 27q208 0 304 -98.5t96 -286.5v-715zM743 215v330h-151q-182 0 -247.5 -44.5t-65.5 -156.5v-25q0 -105 46.5 -145.5t141.5 -40.5q124 0 276 82zM866 1569v-8q-10 -135 -108 -212t-226 -77t-225.5 77t-107.5 212v8q0 26 22 26h76q17 0 23 -7t8 -25
q9 -79 67.5 -121.5t136.5 -42.5t137 42.5t68 121.5q2 18 8 25t23 7h76q22 0 22 -26z" />
    <glyph glyph-name="Aogonek" unicode="&#x104;" horiz-adv-x="1296" 
d="M913 502h-530l-131 -471q-3 -12 -14 -21.5t-23 -9.5h-121q-15 0 -25 9.5t-10 23.5q0 10 2 14l379 1333q24 85 81.5 120.5t127.5 35.5q69 0 126 -34.5t81 -119.5l375 -1323q4 -16 4 -22q0 -19 -16 -31l-160 -92q-58 -33 -84.5 -61t-26.5 -66q0 -78 142 -78q29 0 60.5 3.5
t52.5 7.5t24 4q10 0 10 -17v-74q0 -10 -5 -14.5t-18 -7.5q-63 -21 -147 -21q-268 0 -268 197q0 72 35.5 112t119.5 89l90 53zM874 664l-186 673q-10 37 -39 37q-31 0 -41 -37l-186 -673h452z" />
    <glyph glyph-name="aogonek" unicode="&#x105;" horiz-adv-x="1062" 
d="M907 8l-137 -94q-61 -42 -86 -69.5t-25 -67.5q0 -34 24 -51t91 -17q29 0 59 5.5t49.5 10.5t22.5 5q10 0 10 -17v-80q0 -17 -22 -22q-63 -21 -141 -21q-244 0 -244 191q0 63 32.5 105.5t100.5 86.5l107 68v45q-172 -100 -316 -100q-69 0 -126 16.5t-105.5 52.5t-75.5 103
t-27 159v25q0 171 113.5 251.5t380.5 80.5h151v82q0 128 -49 179.5t-170 51.5q-149 0 -313 -16h-10q-37 0 -37 33v71q0 33 43 39q162 27 317 27q208 0 304 -98.5t96 -286.5v-715q0 -21 -17 -33zM743 215v330h-151q-182 0 -247.5 -44.5t-65.5 -156.5v-25q0 -105 46.5 -145.5
t141.5 -40.5q124 0 276 82z" />
    <glyph glyph-name="Cacute" unicode="&#x106;" horiz-adv-x="1116" 
d="M1044 53q0 -34 -40 -41q-140 -26 -340 -26q-81 0 -153.5 17.5t-145 62.5t-125 114t-85 181.5t-32.5 256.5v285q0 145 32.5 258t85 182t125 114t145 62t153.5 17q132 0 344 -33q32 -4 32 -26v-105q0 -22 -24 -22h-6q-222 18 -344 18q-79 0 -141.5 -24.5t-112 -77
t-76.5 -144.5t-27 -219v-285q0 -125 27 -217t76.5 -145t112.5 -77.5t141 -24.5q141 0 338 16h8q32 0 32 -33v-84zM907 1931q0 -8 -8 -16l-231 -258q-2 -3 -6.5 -8t-6.5 -7l-5.5 -5.5t-6 -5t-6 -3t-7.5 -2t-9 -0.5h-111q-18 0 -18 14q0 13 8 21l200 254q15 19 23.5 25t26.5 6
h135q22 0 22 -15z" />
    <glyph glyph-name="cacute" unicode="&#x107;" horiz-adv-x="925" 
d="M836 53q0 -21 -8.5 -31t-32.5 -14q-125 -22 -256 -22q-207 0 -322 134t-115 363v160q0 229 114.5 363.5t322.5 134.5q126 0 256 -23q24 -4 32.5 -13.5t8.5 -31.5v-74q0 -14 -10 -22t-25 -8h-8q-126 14 -254 14q-256 0 -256 -340v-160q0 -340 256 -340q119 0 254 15h8
q14 0 24.5 -8.5t10.5 -22.5v-74zM786 1581q0 -8 -8 -16l-231 -258q-2 -3 -6.5 -8t-6.5 -7l-5.5 -5.5t-6 -5t-6 -3t-7.5 -2t-9 -0.5h-111q-18 0 -18 14q0 13 8 21l201 254q15 19 23 24.5t26 5.5h135q22 0 22 -14z" />
    <glyph glyph-name="Ccircumflex" unicode="&#x108;" horiz-adv-x="1116" 
d="M1044 53q0 -34 -40 -41q-140 -26 -340 -26q-81 0 -153.5 17.5t-145 62.5t-125 114t-85 181.5t-32.5 256.5v285q0 145 32.5 258t85 182t125 114t145 62t153.5 17q132 0 344 -33q32 -4 32 -26v-105q0 -22 -24 -22h-6q-222 18 -344 18q-79 0 -141.5 -24.5t-112 -77
t-76.5 -144.5t-27 -219v-285q0 -125 27 -217t76.5 -145t112.5 -77.5t141 -24.5q141 0 338 16h8q32 0 32 -33v-84zM969 1640q0 -14 -19 -14h-106q-6 0 -10.5 1t-7.5 2t-7.5 5t-6 5.5t-7.5 8.5t-8 9l-168 198l-170 -198q-2 -3 -6.5 -8t-6.5 -7l-5.5 -5.5t-6 -5t-6 -3t-7.5 -2
t-9 -0.5h-107q-18 0 -18 14q0 13 8 21l197 254q11 14 16 19t13 8.5t20 3.5h174q18 0 27 -6t24 -25l195 -254q8 -8 8 -21z" />
    <glyph glyph-name="ccircumflex" unicode="&#x109;" horiz-adv-x="925" 
d="M836 53q0 -21 -8.5 -31t-32.5 -14q-125 -22 -256 -22q-207 0 -322 134t-115 363v160q0 229 114.5 363.5t322.5 134.5q126 0 256 -23q24 -4 32.5 -13.5t8.5 -31.5v-74q0 -14 -10 -22t-25 -8h-8q-126 14 -254 14q-256 0 -256 -340v-160q0 -340 256 -340q119 0 254 15h8
q14 0 24.5 -8.5t10.5 -22.5v-74zM848 1290q0 -14 -19 -14h-106q-6 0 -10.5 1t-7.5 2t-7.5 5t-6 5.5t-7.5 8.5t-8 9l-168 198l-170 -198q-2 -3 -6.5 -8t-6.5 -7l-5.5 -5.5t-6 -5t-6 -3t-7.5 -2t-9 -0.5h-107q-18 0 -18 14q0 13 8 21l197 254q15 19 23 24.5t26 5.5h174
q18 0 27.5 -6t23.5 -24l195 -254q8 -8 8 -21z" />
    <glyph glyph-name="Cdotaccent" unicode="&#x10a;" horiz-adv-x="1116" 
d="M1044 53q0 -34 -40 -41q-140 -26 -340 -26q-81 0 -153.5 17.5t-145 62.5t-125 114t-85 181.5t-32.5 256.5v285q0 145 32.5 258t85 182t125 114t145 62t153.5 17q132 0 344 -33q32 -4 32 -26v-105q0 -22 -24 -22h-6q-222 18 -344 18q-79 0 -141.5 -24.5t-112 -77
t-76.5 -144.5t-27 -219v-285q0 -125 27 -217t76.5 -145t112.5 -77.5t141 -24.5q141 0 338 16h8q32 0 32 -33v-84zM721 1667q0 -17 -12 -29t-27 -12h-98q-16 0 -28.5 12t-12.5 29v172q0 15 13 27t28 12h98q15 0 27 -12t12 -27v-172z" />
    <glyph glyph-name="cdotaccent" unicode="&#x10b;" horiz-adv-x="925" 
d="M836 53q0 -21 -8.5 -31t-32.5 -14q-125 -22 -256 -22q-207 0 -322 134t-115 363v160q0 229 114.5 363.5t322.5 134.5q126 0 256 -23q24 -4 32.5 -13.5t8.5 -31.5v-74q0 -14 -10 -22t-25 -8h-8q-126 14 -254 14q-256 0 -256 -340v-160q0 -340 256 -340q119 0 254 15h8
q14 0 24.5 -8.5t10.5 -22.5v-74zM612 1348q0 -17 -12 -29t-27 -12h-98q-16 0 -28.5 12t-12.5 29v172q0 15 13 27t28 12h98q15 0 27 -12t12 -27v-172z" />
    <glyph glyph-name="Ccaron" unicode="&#x10c;" horiz-adv-x="1116" 
d="M1044 53q0 -34 -40 -41q-140 -26 -340 -26q-81 0 -153.5 17.5t-145 62.5t-125 114t-85 181.5t-32.5 256.5v285q0 145 32.5 258t85 182t125 114t145 62t153.5 17q132 0 344 -33q32 -4 32 -26v-105q0 -22 -24 -22h-6q-222 18 -344 18q-79 0 -141.5 -24.5t-112 -77
t-76.5 -144.5t-27 -219v-285q0 -125 27 -217t76.5 -145t112.5 -77.5t141 -24.5q141 0 338 16h8q32 0 32 -33v-84zM973 1931q0 -12 -8 -20l-199 -254q-15 -19 -24 -25t-27 -6h-174q-17 0 -25.5 6t-23.5 25l-201 254q-8 8 -8 20q0 15 18 15h111q7 0 12 -1t10 -5t7.5 -6.5
t8.5 -10t9 -10.5l170 -197l168 197q3 3 9 10.5t8.5 10t7.5 6.5t10 5t12 1h110q19 0 19 -15z" />
    <glyph glyph-name="ccaron" unicode="&#x10d;" horiz-adv-x="925" 
d="M836 53q0 -21 -8.5 -31t-32.5 -14q-125 -22 -256 -22q-207 0 -322 134t-115 363v160q0 229 114.5 363.5t322.5 134.5q126 0 256 -23q24 -4 32.5 -13.5t8.5 -31.5v-74q0 -14 -10 -22t-25 -8h-8q-126 14 -254 14q-256 0 -256 -340v-160q0 -340 256 -340q119 0 254 15h8
q14 0 24.5 -8.5t10.5 -22.5v-74zM854 1581q0 -12 -8 -20l-199 -254q-15 -19 -24 -25t-27 -6h-174q-17 0 -25.5 6t-23.5 25l-201 254q-8 8 -8 20q0 14 18 14h111q7 0 11.5 -1t10 -5t7.5 -5.5t9 -10t9 -10.5l170 -197l168 197q2 2 9 10.5t9 10t7.5 5.5t10 5t11.5 1h111
q18 0 18 -14z" />
    <glyph glyph-name="Dcaron" unicode="&#x10e;" horiz-adv-x="1312" 
d="M1196 623q0 -320 -164 -478.5t-457 -158.5q-254 0 -372 20q-43 6 -43 51v1407q0 46 43 52q118 20 372 20q294 0 457.5 -157.5t163.5 -479.5v-276zM1010 623v276q0 109 -22 192t-60 136.5t-94 87.5t-119 47.5t-140 13.5q-125 0 -227 -6v-1220q83 -5 227 -5
q97 0 172.5 23.5t136.5 76.5t93.5 148.5t32.5 229.5zM1001 1931q0 -12 -8 -20l-198 -254q-14 -18 -24 -24.5t-28 -6.5h-174q-17 0 -25.5 6t-23.5 25l-201 254q-8 8 -8 20q0 15 19 15h110q7 0 12 -1t10 -5t7.5 -6.5t8.5 -10t9 -10.5l170 -197l168 197q3 3 9 10.5t8.5 10
t7.5 6.5t10 5t12 1h111q18 0 18 -15z" />
    <glyph glyph-name="dcaron" unicode="&#x10f;" horiz-adv-x="1316" 
d="M1368 1522q0 -5 -4 -17l-154 -387q-8 -22 -15.5 -30.5t-23.5 -8.5h-84q-24 0 -24 25q0 10 2 14l117 387q6 21 15 30t26 9h118q27 0 27 -22zM969 68q0 -22 -8.5 -33t-34.5 -15q-173 -34 -377 -34q-223 0 -335 134t-112 372v147q0 244 112.5 373t334.5 129q119 0 239 -21
v381q0 16 11 27.5t28 11.5h105q15 0 26 -11t11 -28v-1433zM788 156v813q-79 14 -239 14q-145 0 -205.5 -86t-60.5 -258v-147q0 -176 60 -262.5t206 -86.5q87 0 239 13z" />
    <glyph glyph-name="Dcroat" unicode="&#x110;" horiz-adv-x="1312" 
d="M1196 623q0 -320 -164 -478.5t-457 -158.5q-254 0 -372 20q-43 6 -43 51v654h-78q-17 0 -29 12t-12 29v77q0 17 12 29t29 12h78v594q0 46 43 52q118 20 372 20q294 0 457.5 -157.5t163.5 -479.5v-276zM1010 623v276q0 109 -22 192t-60 136.5t-94 87.5t-119 47.5
t-140 13.5q-125 0 -227 -6v-500h211q17 0 29 -12t12 -29v-77q0 -17 -12 -29t-29 -12h-211v-561q83 -5 227 -5q97 0 172.5 23.5t136.5 76.5t93.5 148.5t32.5 229.5z" />
    <glyph glyph-name="dcroat" unicode="&#x111;" horiz-adv-x="1107" 
d="M969 68q0 -22 -8.5 -33t-34.5 -15q-173 -34 -377 -34q-223 0 -335 134t-112 372v147q0 244 112.5 373t334.5 129q119 0 239 -21v150h-327q-17 0 -29 12t-12 29v69q0 17 12 29t29 12h327v80q0 16 11 27.5t28 11.5h105q15 0 26 -11t11 -28v-80h71q17 0 29 -12t12 -29v-69
q0 -17 -12 -29t-29 -12h-71v-1202zM788 156v813q-79 14 -239 14q-145 0 -205.5 -86t-60.5 -258v-147q0 -176 60 -262.5t206 -86.5q87 0 239 13z" />
    <glyph glyph-name="Emacron" unicode="&#x112;" horiz-adv-x="1128" 
d="M1016 25q0 -9 -6 -18.5t-15 -10.5q-97 -10 -399 -10q-220 0 -328 90.5t-108 290.5v788q0 200 108 290.5t328 90.5q270 0 399 -12q9 -1 15 -10.5t6 -18.5v-102q0 -11 -6.5 -18t-16.5 -7h-395q-108 0 -162.5 -22t-72 -64.5t-17.5 -126.5v-285h629q17 0 29 -12t12 -29v-77
q0 -17 -12 -29t-29 -12h-629v-344q0 -84 17.5 -126.5t72 -64.5t162.5 -22h395q10 0 16.5 -7t6.5 -18v-104zM948 1712q0 -17 -11.5 -26t-29.5 -9h-590q-18 0 -29.5 9t-11.5 26v70q0 17 11.5 26t29.5 9h590q18 0 29.5 -9t11.5 -26v-70z" />
    <glyph glyph-name="emacron" unicode="&#x113;" horiz-adv-x="1114" 
d="M1008 551q0 -21 -10.5 -33t-28.5 -12h-686v-29q0 -179 69.5 -256.5t214.5 -77.5q211 0 365 23h10q13 0 23 -7.5t10 -21.5v-69q0 -21 -8.5 -32.5t-32.5 -15.5q-173 -34 -367 -34q-75 0 -139.5 14t-125.5 49.5t-104.5 90t-69.5 140.5t-26 197v185q0 223 119 351t336 128
q220 0 335.5 -128t115.5 -351v-111zM825 643v19q0 170 -65 245.5t-203 75.5q-274 0 -274 -321v-19h542zM893 1364q0 -17 -11.5 -26t-29.5 -9h-590q-18 0 -29.5 9t-11.5 26v70q0 34 41 34h590q41 0 41 -34v-70z" />
    <glyph glyph-name="Ebreve" unicode="&#x114;" horiz-adv-x="1128" 
d="M1016 25q0 -9 -6 -18.5t-15 -10.5q-97 -10 -399 -10q-220 0 -328 90.5t-108 290.5v788q0 200 108 290.5t328 90.5q270 0 399 -12q9 -1 15 -10.5t6 -18.5v-102q0 -11 -6.5 -18t-16.5 -7h-395q-108 0 -162.5 -22t-72 -64.5t-17.5 -126.5v-285h629q17 0 29 -12t12 -29v-77
q0 -17 -12 -29t-29 -12h-629v-344q0 -84 17.5 -126.5t72 -64.5t162.5 -22h395q10 0 16.5 -7t6.5 -18v-104zM963 1923v-8q-10 -135 -108 -212t-226 -77t-226 77t-108 212v8q0 27 22 27h76q17 0 23 -7.5t8 -25.5q9 -79 68 -121.5t137 -42.5t137 42.5t68 121.5q2 18 8 25.5
t22 7.5h76q23 0 23 -27z" />
    <glyph glyph-name="ebreve" unicode="&#x115;" horiz-adv-x="1114" 
d="M1008 551q0 -21 -10.5 -33t-28.5 -12h-686v-29q0 -179 69.5 -256.5t214.5 -77.5q211 0 365 23h10q13 0 23 -7.5t10 -21.5v-69q0 -21 -8.5 -32.5t-32.5 -15.5q-173 -34 -367 -34q-75 0 -139.5 14t-125.5 49.5t-104.5 90t-69.5 140.5t-26 197v185q0 223 119 351t336 128
q220 0 335.5 -128t115.5 -351v-111zM825 643v19q0 170 -65 245.5t-203 75.5q-274 0 -274 -321v-19h542zM889 1571v-8q-10 -135 -108 -212t-226 -77t-226 77t-108 212v8q0 26 23 26h75q17 0 23 -7t8 -25q9 -79 68 -121.5t137 -42.5t137 42.5t68 121.5q2 18 8 25t23 7h75
q23 0 23 -26z" />
    <glyph glyph-name="Edotaccent" unicode="&#x116;" horiz-adv-x="1128" 
d="M1016 25q0 -9 -6 -18.5t-15 -10.5q-97 -10 -399 -10q-220 0 -328 90.5t-108 290.5v788q0 200 108 290.5t328 90.5q270 0 399 -12q9 -1 15 -10.5t6 -18.5v-102q0 -11 -6.5 -18t-16.5 -7h-395q-108 0 -162.5 -22t-72 -64.5t-17.5 -126.5v-285h629q17 0 29 -12t12 -29v-77
q0 -17 -12 -29t-29 -12h-629v-344q0 -84 17.5 -126.5t72 -64.5t162.5 -22h395q10 0 16.5 -7t6.5 -18v-104zM702 1698q0 -17 -11.5 -29t-26.5 -12h-99q-16 0 -28.5 12t-12.5 29v172q0 15 13 27t28 12h99q15 0 26.5 -12t11.5 -27v-172z" />
    <glyph glyph-name="edotaccent" unicode="&#x117;" horiz-adv-x="1114" 
d="M1008 551q0 -21 -10.5 -33t-28.5 -12h-686v-29q0 -179 69.5 -256.5t214.5 -77.5q211 0 365 23h10q13 0 23 -7.5t10 -21.5v-69q0 -21 -8.5 -32.5t-32.5 -15.5q-173 -34 -367 -34q-75 0 -139.5 14t-125.5 49.5t-104.5 90t-69.5 140.5t-26 197v185q0 223 119 351t336 128
q220 0 335.5 -128t115.5 -351v-111zM825 643v19q0 170 -65 245.5t-203 75.5q-274 0 -274 -321v-19h542zM647 1348q0 -17 -12 -29t-27 -12h-98q-16 0 -28.5 12t-12.5 29v172q0 15 13 27t28 12h98q15 0 27 -12t12 -27v-172z" />
    <glyph glyph-name="Eogonek" unicode="&#x118;" horiz-adv-x="1128" 
d="M1016 25q0 -9 -6 -18.5t-15 -10.5q-40 -4 -82 -4l-110 -78q-44 -30 -62 -43.5t-33.5 -36t-15.5 -47.5q0 -78 142 -78q29 0 62.5 5.5t56.5 10.5t26 5q10 0 10 -17v-80q0 -17 -22 -22q-63 -21 -156 -21q-268 0 -268 197q0 37 12.5 68.5t36 54.5t40.5 35.5t42 27.5l20 13
h-98q-220 0 -328 90.5t-108 290.5v788q0 200 108 290.5t328 90.5q270 0 399 -12q9 -1 15 -10.5t6 -18.5v-102q0 -11 -6.5 -18t-16.5 -7h-395q-108 0 -162.5 -22t-72 -64.5t-17.5 -126.5v-285h629q17 0 29 -12t12 -29v-77q0 -17 -12 -29t-29 -12h-629v-344q0 -84 17.5 -126.5
t72 -64.5t162.5 -22h395q10 0 16.5 -7t6.5 -18v-104z" />
    <glyph glyph-name="eogonek" unicode="&#x119;" horiz-adv-x="1114" 
d="M825 643v19q0 170 -65 245.5t-203 75.5q-274 0 -274 -321v-19h542zM690 -10q-78 -4 -123 -4q-75 0 -139.5 14t-125.5 49.5t-104.5 90t-69.5 140.5t-26 197v185q0 223 119 351t336 128q220 0 335.5 -128t115.5 -351v-111q0 -21 -10.5 -33t-28.5 -12h-686v-29
q0 -179 69.5 -256.5t214.5 -77.5q55 0 114.5 2.5t106 6.5t85 7.5t61.5 6t24 2.5q17 0 17 -31v-69q0 -28 -19 -41l-163 -113q-44 -30 -62 -43.5t-33.5 -36t-15.5 -47.5q0 -39 33 -58.5t108 -19.5q29 0 62.5 5.5t57 10.5t26.5 5q10 0 10 -17v-80q0 -10 -5 -14.5t-18 -7.5
q-63 -21 -155 -21q-143 0 -206 53.5t-63 143.5q0 37 12.5 68t37.5 55t40 35t42 28z" />
    <glyph glyph-name="Ecaron" unicode="&#x11a;" horiz-adv-x="1128" 
d="M1016 25q0 -9 -6 -18.5t-15 -10.5q-97 -10 -399 -10q-220 0 -328 90.5t-108 290.5v788q0 200 108 290.5t328 90.5q270 0 399 -12q9 -1 15 -10.5t6 -18.5v-102q0 -11 -6.5 -18t-16.5 -7h-395q-108 0 -162.5 -22t-72 -64.5t-17.5 -126.5v-285h629q17 0 29 -12t12 -29v-77
q0 -17 -12 -29t-29 -12h-629v-344q0 -84 17.5 -126.5t72 -64.5t162.5 -22h395q10 0 16.5 -7t6.5 -18v-104zM932 1931q0 -12 -8 -20l-199 -254q-15 -19 -24 -25t-27 -6h-174q-17 0 -25.5 6t-23.5 25l-201 254q-8 8 -8 20q0 15 18 15h111q7 0 12 -1t10 -5t7.5 -6.5t8.5 -10
t9 -10.5l170 -197l168 197q3 3 9 10.5t8.5 10t7.5 6.5t10 5t12 1h110q19 0 19 -15z" />
    <glyph glyph-name="ecaron" unicode="&#x11b;" horiz-adv-x="1114" 
d="M1008 551q0 -21 -10.5 -33t-28.5 -12h-686v-29q0 -179 69.5 -256.5t214.5 -77.5q211 0 365 23h10q13 0 23 -7.5t10 -21.5v-69q0 -21 -8.5 -32.5t-32.5 -15.5q-173 -34 -367 -34q-75 0 -139.5 14t-125.5 49.5t-104.5 90t-69.5 140.5t-26 197v185q0 223 119 351t336 128
q220 0 335.5 -128t115.5 -351v-111zM825 643v19q0 170 -65 245.5t-203 75.5q-274 0 -274 -321v-19h542zM903 1581q0 -12 -8 -20l-199 -254q-15 -19 -24 -25t-27 -6h-174q-17 0 -25.5 6t-23.5 25l-201 254q-8 8 -8 20q0 14 18 14h111q7 0 11.5 -1t10 -5t7.5 -5.5t9 -10
t9 -10.5l170 -197l168 197q2 2 9 10.5t9 10t7.5 5.5t10 5t11.5 1h111q18 0 18 -14z" />
    <glyph glyph-name="Gcircumflex" unicode="&#x11c;" horiz-adv-x="1253" 
d="M1094 61q0 -17 -10 -29.5t-27 -15.5q-187 -30 -408 -30q-80 0 -153.5 20.5t-143 69t-120.5 120t-82 181.5t-31 246v274q0 144 32.5 257t85 183.5t125.5 116.5t148 64t158 18q200 0 389 -29q35 -4 35 -30v-103q0 -20 -27 -20h-8q-169 14 -389 14q-60 0 -111 -13
t-98.5 -46.5t-80.5 -86t-53 -135.5t-20 -190v-274q0 -123 26.5 -215.5t74.5 -147.5t109 -81.5t134 -26.5q111 0 258 12v586q0 18 10 29.5t27 11.5h111q15 0 27 -12t12 -29v-689zM995 1640q0 -14 -18 -14h-107q-6 0 -10.5 1t-7.5 2t-7.5 5t-6 5.5t-7.5 8.5t-8 9l-168 198
l-170 -198q-2 -3 -6.5 -8t-6.5 -7l-5.5 -5.5t-6 -5t-6 -3t-7.5 -2t-9 -0.5h-106q-19 0 -19 14q0 12 9 21l196 254q11 14 16 19t13 8.5t20 3.5h174q18 0 28 -6.5t24 -24.5l194 -254q8 -8 8 -21z" />
    <glyph glyph-name="gcircumflex" unicode="&#x11d;" horiz-adv-x="1144" 
d="M1071 1028q0 -33 -37 -39l-73 -14q69 -73 69 -211v-16q0 -351 -455 -351q-140 0 -237 41q-51 -23 -51 -69q0 -27 14 -42t49 -24l305 -78q52 -13 86 -22.5t79.5 -25.5t75 -31.5t61 -38t50 -48.5t30.5 -60.5t12 -74.5v-16q0 -318 -467 -318q-237 0 -354 85.5t-117 240.5v18
q0 81 37 150.5t92 110.5l-15 6q-47 21 -70.5 64.5t-23.5 94.5v2q0 44 21.5 84t62.5 64q-94 88 -94 238v16q0 58 13 108t45.5 97.5t83 81.5t130.5 54.5t182 20.5h449q19 0 33 -13t14 -32v-53zM852 748v16q0 103 -61.5 161t-215.5 58q-83 0 -139.5 -17.5t-85 -49.5t-40 -68.5
t-11.5 -83.5v-16q0 -209 276 -209q81 0 136.5 15t85.5 44t42.5 65t12.5 85zM868 -92v16q0 58 -53.5 90.5t-196.5 69.5l-231 59q-50 -43 -75 -89t-25 -120v-18q0 -92 66.5 -139t228.5 -47q86 0 143 11.5t88 35.5t43 55t12 76zM932 1290q0 -14 -19 -14h-106q-6 0 -10.5 1
t-7.5 2t-7.5 5t-6 5.5t-7.5 8.5t-8 9l-168 198l-170 -198q-2 -3 -6.5 -8t-6.5 -7l-5.5 -5.5t-6 -5t-6 -3t-7.5 -2t-9 -0.5h-107q-18 0 -18 14q0 13 8 21l197 254q15 19 23 24.5t26 5.5h174q18 0 27.5 -6t23.5 -24l195 -254q8 -8 8 -21z" />
    <glyph glyph-name="Gbreve" unicode="&#x11e;" horiz-adv-x="1253" 
d="M1094 61q0 -17 -10 -29.5t-27 -15.5q-187 -30 -408 -30q-80 0 -153.5 20.5t-143 69t-120.5 120t-82 181.5t-31 246v274q0 144 32.5 257t85 183.5t125.5 116.5t148 64t158 18q200 0 389 -29q35 -4 35 -30v-103q0 -20 -27 -20h-8q-169 14 -389 14q-60 0 -111 -13
t-98.5 -46.5t-80.5 -86t-53 -135.5t-20 -190v-274q0 -123 26.5 -215.5t74.5 -147.5t109 -81.5t134 -26.5q111 0 258 12v586q0 18 10 29.5t27 11.5h111q15 0 27 -12t12 -29v-689zM961 1919v-8q-10 -135 -108 -212t-226 -77t-226 77t-108 212v8q0 27 22 27h76q17 0 23 -7.5
t8 -25.5q9 -79 68 -121.5t137 -42.5t136.5 42.5t67.5 121.5q2 18 8 25.5t23 7.5h76q23 0 23 -27z" />
    <glyph glyph-name="gbreve" unicode="&#x11f;" horiz-adv-x="1144" 
d="M1071 1028q0 -33 -37 -39l-73 -14q69 -73 69 -211v-16q0 -351 -455 -351q-140 0 -237 41q-51 -23 -51 -69q0 -27 14 -42t49 -24l305 -78q52 -13 86 -22.5t79.5 -25.5t75 -31.5t61 -38t50 -48.5t30.5 -60.5t12 -74.5v-16q0 -318 -467 -318q-237 0 -354 85.5t-117 240.5v18
q0 81 37 150.5t92 110.5l-15 6q-47 21 -70.5 64.5t-23.5 94.5v2q0 44 21.5 84t62.5 64q-94 88 -94 238v16q0 58 13 108t45.5 97.5t83 81.5t130.5 54.5t182 20.5h449q19 0 33 -13t14 -32v-53zM852 748v16q0 103 -61.5 161t-215.5 58q-83 0 -139.5 -17.5t-85 -49.5t-40 -68.5
t-11.5 -83.5v-16q0 -209 276 -209q81 0 136.5 15t85.5 44t42.5 65t12.5 85zM868 -92v16q0 58 -53.5 90.5t-196.5 69.5l-231 59q-50 -43 -75 -89t-25 -120v-18q0 -92 66.5 -139t228.5 -47q86 0 143 11.5t88 35.5t43 55t12 76zM907 1569v-8q-10 -135 -108 -212t-226 -77
t-225.5 77t-107.5 212v8q0 26 22 26h76q17 0 23 -7t8 -25q9 -79 67.5 -121.5t136.5 -42.5t137 42.5t68 121.5q2 18 8 25t23 7h76q22 0 22 -26z" />
    <glyph glyph-name="Gdotaccent" unicode="&#x120;" horiz-adv-x="1253" 
d="M1094 61q0 -17 -10 -29.5t-27 -15.5q-187 -30 -408 -30q-80 0 -153.5 20.5t-143 69t-120.5 120t-82 181.5t-31 246v274q0 144 32.5 257t85 183.5t125.5 116.5t148 64t158 18q200 0 389 -29q35 -4 35 -30v-103q0 -20 -27 -20h-8q-169 14 -389 14q-60 0 -111 -13
t-98.5 -46.5t-80.5 -86t-53 -135.5t-20 -190v-274q0 -123 26.5 -215.5t74.5 -147.5t109 -81.5t134 -26.5q111 0 258 12v586q0 18 10 29.5t27 11.5h111q15 0 27 -12t12 -29v-689zM748 1667q0 -17 -12 -29t-27 -12h-99q-16 0 -28.5 12t-12.5 29v172q0 15 13 27t28 12h99
q15 0 27 -12t12 -27v-172z" />
    <glyph glyph-name="gdotaccent" unicode="&#x121;" horiz-adv-x="1144" 
d="M1071 1028q0 -33 -37 -39l-73 -14q69 -73 69 -211v-16q0 -351 -455 -351q-140 0 -237 41q-51 -23 -51 -69q0 -27 14 -42t49 -24l305 -78q52 -13 86 -22.5t79.5 -25.5t75 -31.5t61 -38t50 -48.5t30.5 -60.5t12 -74.5v-16q0 -318 -467 -318q-237 0 -354 85.5t-117 240.5v18
q0 81 37 150.5t92 110.5l-15 6q-47 21 -70.5 64.5t-23.5 94.5v2q0 44 21.5 84t62.5 64q-94 88 -94 238v16q0 58 13 108t45.5 97.5t83 81.5t130.5 54.5t182 20.5h449q19 0 33 -13t14 -32v-53zM852 748v16q0 103 -61.5 161t-215.5 58q-83 0 -139.5 -17.5t-85 -49.5t-40 -68.5
t-11.5 -83.5v-16q0 -209 276 -209q81 0 136.5 15t85.5 44t42.5 65t12.5 85zM868 -92v16q0 58 -53.5 90.5t-196.5 69.5l-231 59q-50 -43 -75 -89t-25 -120v-18q0 -92 66.5 -139t228.5 -47q86 0 143 11.5t88 35.5t43 55t12 76zM684 1348q0 -17 -12 -29t-27 -12h-98
q-16 0 -28.5 12t-12.5 29v172q0 15 13 27t28 12h98q15 0 27 -12t12 -27v-172z" />
    <glyph glyph-name="Gcommaaccent" unicode="&#x122;" horiz-adv-x="1253" 
d="M596 -100h141q23 0 23 -23l-2 -16l-111 -223q-10 -23 -18.5 -31t-30.5 -8h-84q-18 0 -18 16q0 8 2 16l57 230q8 39 41 39zM1094 61q0 -17 -10 -29.5t-27 -15.5q-187 -30 -408 -30q-80 0 -153.5 20.5t-143 69t-120.5 120t-82 181.5t-31 246v274q0 144 32.5 257t85 183.5
t125.5 116.5t148 64t158 18q200 0 389 -29q35 -4 35 -30v-103q0 -20 -27 -20h-8q-169 14 -389 14q-60 0 -111 -13t-98.5 -46.5t-80.5 -86t-53 -135.5t-20 -190v-274q0 -123 26.5 -215.5t74.5 -147.5t109 -81.5t134 -26.5q111 0 258 12v586q0 18 10 29.5t27 11.5h111
q15 0 27 -12t12 -29v-689z" />
    <glyph glyph-name="gcommaaccent" unicode="&#x123;" horiz-adv-x="1144" 
d="M637 1239h-141q-8 0 -16.5 6.5t-8.5 16.5t4 16l111 223q10 23 18.5 31t30.5 8h84q18 0 18 -16q0 -9 -2 -17l-57 -229q-8 -39 -41 -39zM1071 1028q0 -33 -37 -39l-73 -14q69 -73 69 -211v-16q0 -351 -455 -351q-140 0 -237 41q-51 -23 -51 -69q0 -27 14 -42t49 -24
l305 -78q52 -13 86 -22.5t79.5 -25.5t75 -31.5t61 -38t50 -48.5t30.5 -60.5t12 -74.5v-16q0 -318 -467 -318q-237 0 -354 85.5t-117 240.5v18q0 81 37 150.5t92 110.5l-15 6q-47 21 -70.5 64.5t-23.5 94.5v2q0 44 21.5 84t62.5 64q-94 88 -94 238v16q0 58 13 108t45.5 97.5
t83 81.5t130.5 54.5t182 20.5h449q19 0 33 -13t14 -32v-53zM852 748v16q0 103 -61.5 161t-215.5 58q-83 0 -139.5 -17.5t-85 -49.5t-40 -68.5t-11.5 -83.5v-16q0 -209 276 -209q81 0 136.5 15t85.5 44t42.5 65t12.5 85zM868 -92v16q0 58 -53.5 90.5t-196.5 69.5l-231 59
q-50 -43 -75 -89t-25 -120v-18q0 -92 66.5 -139t228.5 -47q86 0 143 11.5t88 35.5t43 55t12 76z" />
    <glyph glyph-name="Hcircumflex" unicode="&#x124;" horiz-adv-x="1392" 
d="M1233 41q0 -17 -12 -29t-29 -12h-105q-17 0 -28.5 12t-11.5 29v680h-701v-680q0 -17 -12 -29t-29 -12h-104q-17 0 -29 12t-12 29v1440q0 17 12 29t29 12h104q17 0 29 -12t12 -29v-594h701v594q0 17 11.5 29t28.5 12h105q17 0 29 -12t12 -29v-1440zM1038 1638
q0 -14 -18 -14h-107q-6 0 -10.5 1t-7.5 2t-7.5 5t-6 5.5t-7.5 8.5t-8 9l-168 198l-170 -198q-2 -3 -6.5 -8t-6.5 -7l-5.5 -5.5t-6 -5t-6 -3t-7.5 -2t-9 -0.5h-106q-19 0 -19 14q0 12 9 21l196 254q11 14 16 19t13 8.5t20 3.5h174q18 0 28 -6.5t24 -24.5l194 -254q8 -8 8 -21
z" />
    <glyph glyph-name="hcircumflex" unicode="&#x125;" horiz-adv-x="1140" 
d="M1001 41q0 -17 -11.5 -29t-28.5 -12h-99q-17 0 -29 12t-12 29v674q0 146 -56 207t-163 61q-57 0 -139.5 -14.5t-143.5 -42.5v-885q0 -16 -11.5 -28.5t-28.5 -12.5h-101q-15 0 -27 12t-12 29v1458q0 17 11 29t28 12h103q17 0 27.5 -11.5t10.5 -29.5v-422q70 31 156.5 47.5
t157.5 16.5q171 0 269.5 -104.5t98.5 -321.5v-674zM934 1638q0 -14 -19 -14h-106q-6 0 -10.5 1t-7.5 2t-7.5 5t-6 5.5t-7.5 8.5t-8 9l-168 198l-170 -198q-2 -3 -6.5 -8t-6.5 -7l-5.5 -5.5t-6 -5t-6 -3t-7.5 -2t-9 -0.5h-107q-18 0 -18 14q0 13 8 21l197 254q11 14 16 19
t13 8.5t20 3.5h174q18 0 27 -6t24 -25l195 -254q8 -8 8 -21z" />
    <glyph glyph-name="Hbar" unicode="&#x126;" horiz-adv-x="1392" 
d="M1352 1151q0 -17 -12 -29t-29 -12h-78v-1069q0 -17 -12 -29t-29 -12h-105q-17 0 -28.5 12t-11.5 29v680h-701v-680q0 -17 -12 -29t-29 -12h-104q-17 0 -29 12t-12 29v1069h-78q-17 0 -29 12t-12 29v84q0 17 12 29t29 12h78v205q0 17 12 29t29 12h104q17 0 29 -12t12 -29
v-205h701v205q0 17 11.5 29t28.5 12h105q17 0 29 -12t12 -29v-205h78q17 0 29 -12t12 -29v-84zM346 887h701v223h-701v-223z" />
    <glyph glyph-name="hbar" unicode="&#x127;" horiz-adv-x="1140" 
d="M70 1427h69v72q0 17 11 29t28 12h103q17 0 27.5 -11.5t10.5 -29.5v-72h330q17 0 29 -12t12 -29v-69q0 -17 -12 -29t-29 -12h-330v-199q70 31 156.5 47.5t157.5 16.5q171 0 269.5 -104.5t98.5 -321.5v-674q0 -17 -11.5 -29t-28.5 -12h-99q-17 0 -29 12t-12 29v674
q0 146 -56 207t-163 61q-57 0 -139.5 -14.5t-143.5 -42.5v-885q0 -16 -11.5 -28.5t-28.5 -12.5h-101q-15 0 -27 12t-12 29v1235h-69q-17 0 -29 12t-12 29v69q0 17 12 29t29 12z" />
    <glyph glyph-name="Itilde" unicode="&#x128;" horiz-adv-x="546" 
d="M367 41q0 -16 -10.5 -28.5t-26.5 -12.5h-113q-15 0 -26 12t-11 29v1442q0 16 10 27.5t27 11.5h113q15 0 26 -11t11 -28v-1442zM635 1825q0 -108 -46 -161.5t-147 -53.5q-76 0 -131 43l-125 100q-37 30 -51.5 37.5t-32.5 7.5q-35 0 -49 -23t-14 -71v-43q0 -13 -10.5 -24
t-24.5 -11h-63q-13 0 -23 10.5t-10 24.5v43q0 109 51 166t143 57q60 0 123 -49l146 -115q35 -28 71 -28q32 0 47 19.5t15 70.5v47q0 14 11 24.5t24 10.5h63q13 0 23 -10.5t10 -24.5v-47z" />
    <glyph glyph-name="itilde" unicode="&#x129;" horiz-adv-x="505" 
d="M342 41q0 -17 -12 -29t-29 -12h-98q-17 0 -29 12t-12 29v1044q0 17 12 29t29 12h98q17 0 29 -12t12 -29v-1044zM616 1497q0 -108 -45.5 -161.5t-146.5 -53.5q-76 0 -131 43l-125 100q-37 30 -51.5 37.5t-32.5 7.5q-35 0 -49.5 -23t-14.5 -71v-43q0 -14 -10.5 -24.5
t-23.5 -10.5h-64q-13 0 -23 10.5t-10 24.5v43q0 109 51.5 166t143.5 57q60 0 123 -49l145 -114q15 -12 36.5 -20.5t35.5 -8.5q32 0 46.5 19.5t14.5 70.5v47q0 14 10.5 24.5t24.5 10.5h64q13 0 22.5 -10.5t9.5 -24.5v-47z" />
    <glyph glyph-name="Imacron" unicode="&#x12a;" horiz-adv-x="546" 
d="M367 41q0 -16 -10.5 -28.5t-26.5 -12.5h-113q-15 0 -26 12t-11 29v1442q0 16 10 27.5t27 11.5h113q15 0 26 -11t11 -28v-1442zM608 1714q0 -17 -11.5 -26t-29.5 -9h-590q-40 0 -40 35v70q0 35 40 35h590q18 0 29.5 -9t11.5 -26v-70z" />
    <glyph glyph-name="imacron" unicode="&#x12b;" horiz-adv-x="505" 
d="M342 41q0 -17 -12 -29t-29 -12h-98q-17 0 -29 12t-12 29v1044q0 17 12 29t29 12h98q17 0 29 -12t12 -29v-1044zM588 1364q0 -17 -11.5 -26t-29.5 -9h-590q-18 0 -29.5 9t-11.5 26v70q0 34 41 34h590q41 0 41 -34v-70z" />
    <glyph glyph-name="Ibreve" unicode="&#x12c;" horiz-adv-x="546" 
d="M367 41q0 -16 -10.5 -28.5t-26.5 -12.5h-113q-15 0 -26 12t-11 29v1442q0 16 10 27.5t27 11.5h113q15 0 26 -11t11 -28v-1442zM606 1921v-8q-10 -135 -108 -212t-226 -77t-225.5 77t-107.5 212v8q0 27 22 27h76q17 0 23 -7.5t8 -25.5q9 -79 67.5 -121.5t136.5 -42.5
t137 42.5t68 121.5q2 18 8 25.5t23 7.5h76q22 0 22 -27z" />
    <glyph glyph-name="ibreve" unicode="&#x12d;" horiz-adv-x="505" 
d="M342 41q0 -17 -12 -29t-29 -12h-98q-17 0 -29 12t-12 29v1044q0 17 12 29t29 12h98q17 0 29 -12t12 -29v-1044zM586 1569v-8q-10 -135 -108 -212t-226 -77t-226 77t-108 212v8q0 26 23 26h75q17 0 23 -7t8 -25q9 -79 68 -121.5t137 -42.5t137 42.5t68 121.5q2 18 7.5 25
t22.5 7h76q23 0 23 -26z" />
    <glyph glyph-name="Iogonek" unicode="&#x12e;" horiz-adv-x="546" 
d="M16 -213q0 58 29 105.5t98 97.5l37 26v1467q0 16 10 27.5t27 11.5h113q15 0 26 -11t11 -28v-1448q0 -23 -17 -35l-74 -59q-71 -58 -90.5 -85.5t-19.5 -68.5q0 -39 33 -58.5t108 -19.5q29 0 62.5 5.5t57 10.5t26.5 5q10 0 10 -17v-80q0 -10 -5 -14.5t-18 -7.5
q-63 -21 -155 -21q-143 0 -206 53.5t-63 143.5z" />
    <glyph glyph-name="iogonek" unicode="&#x12f;" horiz-adv-x="505" 
d="M-4 -213q0 58 29 105.5t98 97.5l37 26v1071q0 16 10 27.5t27 11.5h108q15 0 26 -11t11 -28v-1052q0 -24 -16 -35l-74 -59q-70 -57 -88.5 -85t-18.5 -69q0 -78 142 -78q29 0 62.5 5.5t56.5 10.5t26 5q10 0 10 -17v-80q0 -17 -22 -22q-63 -21 -156 -21q-268 0 -268 197z
M346 1348q0 -17 -12 -29t-29 -12h-104q-17 0 -29 12t-12 29v163q0 17 12 29t29 12h104q17 0 29 -12t12 -29v-163z" />
    <glyph glyph-name="Idotaccent" unicode="&#x130;" horiz-adv-x="546" 
d="M367 41q0 -16 -10.5 -28.5t-26.5 -12.5h-113q-15 0 -26 12t-11 29v1442q0 16 10 27.5t27 11.5h113q15 0 26 -11t11 -28v-1442zM362 1698q0 -17 -11.5 -29t-26.5 -12h-99q-16 0 -28.5 12t-12.5 29v172q0 15 13 27t28 12h99q15 0 26.5 -12t11.5 -27v-172z" />
    <glyph glyph-name="dotlessi" unicode="&#x131;" horiz-adv-x="505" 
d="M342 41q0 -17 -12 -29t-29 -12h-98q-17 0 -29 12t-12 29v1044q0 17 12 29t29 12h98q17 0 29 -12t12 -29v-1044z" />
    <glyph glyph-name="IJ" unicode="&#x132;" horiz-adv-x="1073" 
d="M367 41q0 -16 -10.5 -28.5t-26.5 -12.5h-113q-15 0 -26 12t-11 29v1442q0 16 10 27.5t27 11.5h113q15 0 26 -11t11 -28v-1442zM913 -76q0 -150 -75 -221.5t-242 -71.5q-31 0 -64.5 6t-44.5 11q-12 6 -12 22v76q0 17 11.5 26t29.5 9h80q78 0 104.5 32t26.5 111v1559
q0 15 12 27t27 12h108q15 0 27 -12t12 -27v-1559z" />
    <glyph glyph-name="ij" unicode="&#x133;" horiz-adv-x="1011" 
d="M346 1348q0 -17 -12 -29t-29 -12h-104q-17 0 -29 12t-12 29v163q0 17 12 29t29 12h104q17 0 29 -12t12 -29v-163zM342 41q0 -17 -12 -29t-29 -12h-98q-17 0 -29 12t-12 29v1044q0 17 12 29t29 12h98q17 0 29 -12t12 -29v-1044zM852 1346q0 -17 -12 -28t-29 -11h-104
q-16 0 -28.5 11t-12.5 28v165q0 16 12 28.5t29 12.5h104q16 0 28.5 -12t12.5 -29v-165zM848 -131q0 -153 -63 -212.5t-193 -59.5q-56 0 -111 8q-37 5 -37 33v75q0 29 43 29h84q58 0 77.5 25t19.5 102v1216q0 16 10.5 28.5t26.5 12.5h106q17 0 27 -11.5t10 -29.5v-1216z" />
    <glyph glyph-name="Jcircumflex" unicode="&#x134;" horiz-adv-x="526" 
d="M367 -76q0 -150 -75.5 -221.5t-242.5 -71.5q-31 0 -64 6t-44 11q-13 6 -13 22v76q0 17 11.5 26t29.5 9h80q78 0 104.5 32t26.5 111v1559q0 15 12 27t27 12h109q15 0 27 -12t12 -27v-1559zM616 1640q0 -14 -18 -14h-106q-11 0 -20 5t-11.5 7.5t-16.5 18.5l-168 198
l-170 -198q-2 -3 -6.5 -8t-6.5 -7l-5.5 -5.5t-6 -5t-6 -3t-7.5 -2t-9 -0.5h-106q-19 0 -19 14q0 12 9 21l196 254q11 14 16 19t13 8.5t20 3.5h174q18 0 28 -6.5t24 -24.5l194 -254q8 -8 8 -21z" />
    <glyph glyph-name="jcircumflex" unicode="&#x135;" horiz-adv-x="505" 
d="M342 -131q0 -153 -63 -212.5t-193 -59.5q-56 0 -111 8q-36 5 -36 33v75q0 29 43 29h84q58 0 77 25t19 102v1216q0 16 10.5 28.5t26.5 12.5h106q17 0 27 -11.5t10 -29.5v-1216zM590 1290q0 -14 -19 -14h-106q-6 0 -10.5 1t-7.5 2t-7.5 5t-6 5.5t-7.5 8.5t-8 9l-168 198
l-170 -198q-2 -3 -6.5 -8t-6.5 -7l-5.5 -5.5t-6 -5t-6 -3t-7.5 -2t-9 -0.5h-107q-18 0 -18 14q0 13 8 21l197 254q15 19 23 24.5t26 5.5h174q18 0 27.5 -6t23.5 -24l195 -254q8 -8 8 -21z" />
    <glyph glyph-name="Kcommaaccent" unicode="&#x136;" horiz-adv-x="1243" 
d="M590 -100h141q23 0 23 -23l-2 -16l-111 -223q-10 -23 -18.5 -31t-30.5 -8h-84q-19 0 -19 16q0 4 3 16l57 230q8 39 41 39zM1155 20q0 -20 -27 -20h-159q-28 0 -45 20l-578 703v-682q0 -16 -10.5 -28.5t-26.5 -12.5h-112q-15 0 -26 12t-11 29v1442q0 16 11 27.5t28 11.5
h108q16 0 27.5 -11t11.5 -28v-662l590 682q19 19 41 19h147q29 0 29 -23q0 -12 -8 -20l-617 -697l617 -737q10 -10 10 -25z" />
    <glyph glyph-name="kcommaaccent" unicode="&#x137;" horiz-adv-x="1015" 
d="M477 -100h141q23 0 23 -23l-2 -16l-111 -223q-10 -23 -18.5 -31t-30.5 -8h-84q-18 0 -18 16q0 8 2 16l57 230q8 39 41 39zM944 27q0 -11 -6 -19t-16 -8h-148q-16 0 -25 5.5t-22 21.5l-408 503v-489q0 -17 -11.5 -29t-28.5 -12h-99q-17 0 -29 12t-12 29v1458q0 17 12 29
t29 12h99q17 0 28.5 -12t11.5 -29v-852l410 461q15 18 41 18h143q31 0 31 -22q0 -13 -10 -23l-451 -487l455 -549q6 -6 6 -18z" />
    <glyph glyph-name="kgreenlandic" unicode="&#x138;" horiz-adv-x="1015" 
d="M944 27q0 -11 -6 -19t-16 -8h-148q-16 0 -25 5.5t-22 21.5l-408 503v-489q0 -17 -11.5 -29t-28.5 -12h-99q-17 0 -29 12t-12 29v1044q0 17 12 29t29 12h99q17 0 28.5 -12t11.5 -29v-438l410 461q15 18 41 18h143q31 0 31 -22q0 -13 -10 -23l-451 -487l455 -549
q6 -6 6 -18z" />
    <glyph glyph-name="Lacute" unicode="&#x139;" horiz-adv-x="1052" 
d="M1016 33q0 -9 -6 -18.5t-15 -10.5q-119 -18 -399 -18q-52 0 -93.5 3t-88 13.5t-82 27t-69.5 45.5t-55.5 68.5t-34.5 96t-13 127.5v1114q0 17 12 29t29 12h104q17 0 29 -12t12 -29v-1114q0 -84 17.5 -126.5t72 -64.5t162.5 -22h395q10 0 16.5 -7t6.5 -18v-96zM807 1931
q0 -8 -8 -16l-232 -258q-2 -3 -6.5 -8t-6.5 -7l-5.5 -5.5t-6 -5t-6 -3t-7.5 -2t-9 -0.5h-110q-19 0 -19 14q0 13 8 21l201 254q11 14 16 19t13 8.5t20 3.5h135q23 0 23 -15z" />
    <glyph glyph-name="lacute" unicode="&#x13a;" horiz-adv-x="499" 
d="M340 41q0 -16 -10.5 -28.5t-26.5 -12.5h-106q-15 0 -26 12t-11 29v1460q0 16 10 27.5t27 11.5h106q15 0 26 -11t11 -28v-1460zM528 1935q0 -8 -8 -16l-231 -258q-2 -3 -6.5 -8t-6.5 -7l-5.5 -5.5t-6 -5t-6 -3t-7.5 -2t-9 -0.5h-111q-18 0 -18 15q0 12 8 20l201 254
q11 14 16 19t13 8.5t20 3.5h135q22 0 22 -15z" />
    <glyph glyph-name="Lcommaaccent" unicode="&#x13b;" horiz-adv-x="1052" 
d="M516 -100h141q23 0 23 -23l-2 -16l-111 -223q-10 -23 -18.5 -31t-30.5 -8h-84q-18 0 -18 16q0 8 2 16l57 230q8 39 41 39zM1016 33q0 -9 -6 -18.5t-15 -10.5q-119 -18 -399 -18q-52 0 -93.5 3t-88 13.5t-82 27t-69.5 45.5t-55.5 68.5t-34.5 96t-13 127.5v1114q0 17 12 29
t29 12h104q17 0 29 -12t12 -29v-1114q0 -84 17.5 -126.5t72 -64.5t162.5 -22h395q10 0 16.5 -7t6.5 -18v-96z" />
    <glyph glyph-name="lcommaaccent" unicode="&#x13c;" horiz-adv-x="499" 
d="M184 -100h142q22 0 22 -23l-2 -16l-110 -223q-10 -23 -19 -31t-31 -8h-84q-18 0 -18 16q0 8 2 16l57 230q8 39 41 39zM340 41q0 -16 -10.5 -28.5t-26.5 -12.5h-106q-15 0 -26 12t-11 29v1460q0 16 10 27.5t27 11.5h106q15 0 26 -11t11 -28v-1460z" />
    <glyph glyph-name="Lcaron" unicode="&#x13d;" horiz-adv-x="1052" 
d="M877 1518q0 -2 -5 -17l-153 -387q-8 -22 -15.5 -30.5t-23.5 -8.5h-84q-25 0 -25 25q0 10 2 14l117 387q6 21 15 30t26 9h119q27 0 27 -22zM1016 33q0 -9 -6 -18.5t-15 -10.5q-119 -18 -399 -18q-52 0 -93.5 3t-88 13.5t-82 27t-69.5 45.5t-55.5 68.5t-34.5 96t-13 127.5
v1114q0 17 12 29t29 12h104q17 0 29 -12t12 -29v-1114q0 -84 17.5 -126.5t72 -64.5t162.5 -22h395q10 0 16.5 -7t6.5 -18v-96z" />
    <glyph glyph-name="lcaron" unicode="&#x13e;" horiz-adv-x="708" 
d="M760 1522q0 -5 -4 -17l-154 -387q-8 -22 -15.5 -30.5t-23.5 -8.5h-84q-24 0 -24 25q0 10 2 14l116 387q6 21 15 30t26 9h119q27 0 27 -22zM340 41q0 -16 -10.5 -28.5t-26.5 -12.5h-106q-15 0 -26 12t-11 29v1460q0 16 10 27.5t27 11.5h106q15 0 26 -11t11 -28v-1460z" />
    <glyph glyph-name="Ldot" unicode="&#x13f;" horiz-adv-x="1052" 
d="M1016 33q0 -9 -6 -18.5t-15 -10.5q-119 -18 -399 -18q-52 0 -93.5 3t-88 13.5t-82 27t-69.5 45.5t-55.5 68.5t-34.5 96t-13 127.5v1114q0 17 12 29t29 12h104q17 0 29 -12t12 -29v-1114q0 -84 17.5 -126.5t72 -64.5t162.5 -22h395q10 0 16.5 -7t6.5 -18v-96zM823 662
q0 -17 -12 -29t-27 -12h-98q-16 0 -28.5 12t-12.5 29v172q0 15 13 26.5t28 11.5h98q15 0 27 -11.5t12 -26.5v-172z" />
    <glyph glyph-name="ldot" unicode="&#x140;" horiz-adv-x="755" 
d="M340 41q0 -16 -10.5 -28.5t-26.5 -12.5h-106q-15 0 -26 12t-11 29v1460q0 16 10 27.5t27 11.5h106q15 0 26 -11t11 -28v-1460zM684 668q0 -17 -12 -29t-27 -12h-98q-16 0 -28.5 12t-12.5 29v172q0 15 13 27t28 12h98q15 0 27 -12t12 -27v-172z" />
    <glyph glyph-name="Lslash" unicode="&#x141;" horiz-adv-x="1052" 
d="M1016 33q0 -9 -6 -18.5t-15 -10.5q-119 -18 -399 -18q-220 0 -328 90.5t-108 290.5v239l-125 -153q-10 -13 -23 -13q-14 0 -14 13v129v2q0 27 14 45l148 182v670q0 17 12 29t29 12h104q17 0 29 -12t12 -29v-443l139 172q12 15 23 15q14 0 14 -15v-133q0 -26 -16 -47
l-160 -196v-467q0 -84 17.5 -126.5t72 -64.5t162.5 -22h395q10 0 16.5 -7t6.5 -18v-96z" />
    <glyph glyph-name="lslash" unicode="&#x142;" horiz-adv-x="499" 
d="M508 1069q0 -17 -12 -33l-156 -192v-803q0 -18 -10 -29.5t-27 -11.5h-106q-15 0 -26 12t-11 29v582l-140 -170q-8 -11 -18 -11q-7 0 -12.5 5.5t-5.5 11.5v123v2q0 29 14 45l162 198v674q0 16 10 27.5t27 11.5h106q15 0 26 -11t11 -28v-452l131 161q8 11 18 11
q7 0 13 -5.5t6 -13.5v-133z" />
    <glyph glyph-name="Nacute" unicode="&#x143;" horiz-adv-x="1392" 
d="M1233 59q0 -25 -17 -42t-42 -17h-127q-49 0 -66 33l-633 1202q-3 6 -6 6q-2 0 -2 -6v-1196q0 -15 -11 -27t-26 -12h-106q-37 0 -37 25v1439q0 25 17 41.5t42 16.5h113q41 0 56 -8t28 -33l628 -1196l5 -6q2 0 2 6v1198q0 15 10.5 27t25.5 12h109q17 0 27 -11.5t10 -27.5
v-1424zM977 1931q0 -8 -8 -16l-232 -258q-2 -3 -6.5 -8t-6.5 -7l-5.5 -5.5t-6 -5t-6 -3t-7.5 -2t-9 -0.5h-110q-19 0 -19 14q0 13 8 21l201 254q11 14 16 19t13 8.5t20 3.5h135q23 0 23 -15z" />
    <glyph glyph-name="nacute" unicode="&#x144;" horiz-adv-x="1140" 
d="M1001 41q0 -17 -11.5 -29t-28.5 -12h-99q-17 0 -29 12t-12 29v674q0 151 -52.5 210.5t-172.5 59.5q-117 0 -277 -80v-864q0 -16 -11.5 -28.5t-28.5 -12.5h-101q-15 0 -27 12t-12 29v1044q0 17 11 29t28 12h103q17 0 27.5 -11.5t10.5 -29.5v-38q88 49 163 71.5t163 22.5
q356 0 356 -426v-674zM850 1581q0 -8 -8 -16l-232 -258q-2 -3 -6.5 -8t-6.5 -7l-5.5 -5.5t-6 -5t-6 -3t-7.5 -2t-9 -0.5h-110q-19 0 -19 14q0 13 8 21l201 254q15 19 23 24.5t26 5.5h135q23 0 23 -14z" />
    <glyph glyph-name="Ncommaaccent" unicode="&#x145;" horiz-adv-x="1392" 
d="M645 -100h141q23 0 23 -23l-2 -16l-111 -223q-10 -23 -18.5 -31t-30.5 -8h-84q-18 0 -18 16q0 8 2 16l57 230q8 39 41 39zM1233 59q0 -25 -17 -42t-42 -17h-127q-49 0 -66 33l-633 1202q-3 6 -6 6q-2 0 -2 -6v-1196q0 -15 -11 -27t-26 -12h-106q-37 0 -37 25v1439
q0 25 17 41.5t42 16.5h113q41 0 56 -8t28 -33l628 -1196l5 -6q2 0 2 6v1198q0 15 10.5 27t25.5 12h109q17 0 27 -11.5t10 -27.5v-1424z" />
    <glyph glyph-name="ncommaaccent" unicode="&#x146;" horiz-adv-x="1140" 
d="M502 -100h141q23 0 23 -23l-2 -16l-111 -223q-10 -23 -18.5 -31t-30.5 -8h-84q-19 0 -19 16q0 8 2 16l58 230q8 39 41 39zM1001 41q0 -17 -11.5 -29t-28.5 -12h-99q-17 0 -29 12t-12 29v674q0 151 -52.5 210.5t-172.5 59.5q-117 0 -277 -80v-864q0 -16 -11.5 -28.5
t-28.5 -12.5h-101q-15 0 -27 12t-12 29v1044q0 17 11 29t28 12h103q17 0 27.5 -11.5t10.5 -29.5v-38q88 49 163 71.5t163 22.5q356 0 356 -426v-674z" />
    <glyph glyph-name="Ncaron" unicode="&#x147;" horiz-adv-x="1392" 
d="M1233 59q0 -25 -17 -42t-42 -17h-127q-49 0 -66 33l-633 1202q-3 6 -6 6q-2 0 -2 -6v-1196q0 -15 -11 -27t-26 -12h-106q-37 0 -37 25v1439q0 25 17 41.5t42 16.5h113q41 0 56 -8t28 -33l628 -1196l5 -6q2 0 2 6v1198q0 15 10.5 27t25.5 12h109q17 0 27 -11.5t10 -27.5
v-1424zM1042 1931q0 -12 -8 -20l-198 -254q-14 -18 -24 -24.5t-28 -6.5h-174q-17 0 -25.5 6t-23.5 25l-201 254q-8 8 -8 20q0 15 19 15h110q7 0 12 -1t10 -5t7.5 -6.5t8.5 -10t9 -10.5l170 -197l168 197q3 3 9 10.5t8.5 10t7.5 6.5t10 5t12 1h111q18 0 18 -15z" />
    <glyph glyph-name="ncaron" unicode="&#x148;" horiz-adv-x="1140" 
d="M1001 41q0 -17 -11.5 -29t-28.5 -12h-99q-17 0 -29 12t-12 29v674q0 151 -52.5 210.5t-172.5 59.5q-117 0 -277 -80v-864q0 -16 -11.5 -28.5t-28.5 -12.5h-101q-15 0 -27 12t-12 29v1044q0 17 11 29t28 12h103q17 0 27.5 -11.5t10.5 -29.5v-38q88 49 163 71.5t163 22.5
q356 0 356 -426v-674zM915 1581q0 -12 -8 -20l-198 -254q-14 -18 -24 -24.5t-28 -6.5h-174q-17 0 -25.5 6t-23.5 25l-201 254q-8 8 -8 20q0 14 19 14h110q7 0 11.5 -1t10 -5t7.5 -5.5t9 -10t9 -10.5l170 -197l168 197q2 2 9 10.5t9 10t7.5 5.5t10 5t11.5 1h111q18 0 18 -14z
" />
    <glyph glyph-name="napostrophe" unicode="&#x149;" horiz-adv-x="1357" 
d="M322 1518q0 -8 -3 -17l-124 -387q-6 -21 -15 -30t-24 -9h-78q-19 0 -19 21q0 12 2 18l76 387q8 39 41 39h121q23 0 23 -22zM1219 41q0 -17 -12 -29t-29 -12h-99q-17 0 -29 12t-12 29v674q0 151 -52.5 210.5t-172.5 59.5q-116 0 -276 -80v-864q0 -16 -12 -28.5t-29 -12.5
h-101q-15 0 -27 12t-12 29v1044q0 17 11 29t28 12h103q17 0 28 -12t11 -29v-38q88 49 162.5 71.5t162.5 22.5q357 0 357 -426v-674z" />
    <glyph glyph-name="Eng" unicode="&#x14a;" horiz-adv-x="1392" 
d="M1233 -76q0 -150 -75.5 -221.5t-242.5 -71.5q-31 0 -64 6t-44 11q-12 6 -12 22v76q0 17 11.5 26t29.5 9h79q79 0 106.5 32.5t27.5 110.5v76h-2q-49 0 -66 33l-633 1202q-3 6 -6 6q-2 0 -2 -6v-1196q0 -15 -11 -27t-26 -12h-106q-37 0 -37 25v1439q0 25 17 41.5t42 16.5
h113q41 0 56 -8t28 -33l628 -1196l5 -6q2 0 2 6v1198q0 15 10.5 27t25.5 12h109q17 0 27 -11.5t10 -27.5v-1559z" />
    <glyph glyph-name="eng" unicode="&#x14b;" horiz-adv-x="1140" 
d="M1001 -131q0 -153 -63 -212.5t-193 -59.5q-55 0 -110 8q-37 5 -37 33v75q0 29 43 29h84q58 0 77 25t19 102v846q0 151 -52.5 210.5t-172.5 59.5q-117 0 -277 -80v-864q0 -16 -11.5 -28.5t-28.5 -12.5h-101q-15 0 -27 12t-12 29v1044q0 17 11 29t28 12h103
q17 0 27.5 -11.5t10.5 -29.5v-38q88 49 163 71.5t163 22.5q356 0 356 -426v-846z" />
    <glyph glyph-name="Omacron" unicode="&#x14c;" horiz-adv-x="1353" 
d="M1231 629q0 -167 -40.5 -292t-115.5 -201t-174 -113t-223 -37t-223.5 37t-174.5 113t-116 201t-41 292v264q0 167 41 292t116 201t174.5 113t223.5 37t223 -37t174 -113t115.5 -201t40.5 -292v-264zM1042 629v264q0 249 -94 362t-270 113q-367 0 -367 -475v-264
q0 -475 367 -475q364 0 364 475zM1014 1712q0 -17 -11.5 -26t-29.5 -9h-590q-18 0 -29.5 9t-11.5 26v70q0 17 11.5 26t29.5 9h590q18 0 29.5 -9t11.5 -26v-70z" />
    <glyph glyph-name="omacron" unicode="&#x14d;" horiz-adv-x="1116" 
d="M1014 485q0 -231 -118 -365t-339 -134t-338 134t-117 365v156q0 231 117 365.5t338 134.5t339 -134.5t118 -365.5v-156zM834 485v156q0 162 -68.5 252t-208.5 90q-139 0 -206.5 -89.5t-67.5 -252.5v-156q0 -163 67 -252.5t207 -89.5q139 0 208 89.5t69 252.5zM891 1364
q0 -17 -11.5 -26t-29.5 -9h-590q-18 0 -29.5 9t-11.5 26v70q0 34 41 34h590q41 0 41 -34v-70z" />
    <glyph glyph-name="Obreve" unicode="&#x14e;" horiz-adv-x="1353" 
d="M1231 629q0 -167 -40.5 -292t-115.5 -201t-174 -113t-223 -37t-223.5 37t-174.5 113t-116 201t-41 292v264q0 167 41 292t116 201t174.5 113t223.5 37t223 -37t174 -113t115.5 -201t40.5 -292v-264zM1042 629v264q0 249 -94 362t-270 113q-367 0 -367 -475v-264
q0 -475 367 -475q364 0 364 475zM1030 1925v-8q-10 -135 -108 -212t-226 -77t-226 77t-108 212v8q0 27 23 27h76q17 0 23 -7.5t8 -25.5q9 -79 67.5 -121.5t136.5 -42.5t137 42.5t68 121.5q2 18 8 25.5t23 7.5h76q22 0 22 -27z" />
    <glyph glyph-name="obreve" unicode="&#x14f;" horiz-adv-x="1116" 
d="M1014 485q0 -231 -118 -365t-339 -134t-338 134t-117 365v156q0 231 117 365.5t338 134.5t339 -134.5t118 -365.5v-156zM834 485v156q0 162 -68.5 252t-208.5 90q-139 0 -206.5 -89.5t-67.5 -252.5v-156q0 -163 67 -252.5t207 -89.5q139 0 208 89.5t69 252.5zM889 1569
v-8q-10 -135 -108 -212t-226 -77t-226 77t-108 212v8q0 26 23 26h75q17 0 23 -7t8 -25q9 -79 68 -121.5t137 -42.5t137 42.5t68 121.5q2 18 8 25t23 7h75q23 0 23 -26z" />
    <glyph glyph-name="Ohungarumlaut" unicode="&#x150;" horiz-adv-x="1353" 
d="M1231 629q0 -167 -40.5 -292t-115.5 -201t-174 -113t-223 -37t-223.5 37t-174.5 113t-116 201t-41 292v264q0 167 41 292t116 201t174.5 113t223.5 37t223 -37t174 -113t115.5 -201t40.5 -292v-264zM1042 629v264q0 249 -94 362t-270 113q-367 0 -367 -475v-264
q0 -475 367 -475q364 0 364 475zM1135 1931q0 -7 -9 -16l-229 -258q-2 -3 -6.5 -8t-6.5 -7l-5.5 -5.5t-6 -5t-6 -3t-7.5 -2t-9 -0.5h-111q-18 0 -18 14q0 13 8 21l199 254q15 19 24 25t27 6h133q23 0 23 -15zM776 1931q0 -8 -8 -16l-229 -258q-2 -3 -6.5 -8t-6.5 -7
l-5.5 -5.5t-6 -5t-6 -3t-7.5 -2t-9 -0.5h-111q-19 0 -19 14q0 12 9 21l198 254q14 18 24 24.5t28 6.5h133q22 0 22 -15z" />
    <glyph glyph-name="ohungarumlaut" unicode="&#x151;" horiz-adv-x="1116" 
d="M1014 485q0 -231 -118 -365t-339 -134t-338 134t-117 365v156q0 231 117 365.5t338 134.5t339 -134.5t118 -365.5v-156zM834 485v156q0 162 -68.5 252t-208.5 90q-139 0 -206.5 -89.5t-67.5 -252.5v-156q0 -163 67 -252.5t207 -89.5q139 0 208 89.5t69 252.5zM1018 1581
q0 -8 -8 -16l-230 -258q-2 -3 -6.5 -8t-6.5 -7l-5.5 -5.5t-6 -5t-6 -3t-7.5 -2t-9 -0.5h-110q-19 0 -19 14q0 13 8 21l199 254q14 18 23.5 24t27.5 6h133q23 0 23 -14zM659 1581q0 -8 -8 -16l-229 -258q-2 -3 -6.5 -8t-6.5 -7l-5.5 -5.5t-6 -5t-6 -3t-7.5 -2t-9 -0.5h-111
q-18 0 -18 14q0 13 8 21l199 254q14 18 23.5 24t27.5 6h133q22 0 22 -14z" />
    <glyph glyph-name="OE" unicode="&#x152;" horiz-adv-x="2013" 
d="M1901 31q0 -9 -6 -18.5t-15 -10.5q-119 -18 -399 -18q-301 0 -391 170q-143 -168 -412 -168q-124 0 -223.5 37t-174.5 113t-116 201t-41 292v264q0 167 41 292t116 201t174.5 113t223.5 37q269 0 412 -168q90 168 391 168q280 0 399 -18q9 -1 15 -10.5t6 -18.5v-96
q0 -11 -6.5 -18t-16.5 -7h-395q-108 0 -162.5 -22t-72 -64.5t-17.5 -126.5v-285h629q17 0 29 -12t12 -29v-77q0 -17 -12 -29t-29 -12h-629v-346q0 -84 17.5 -126.5t72 -64.5t162.5 -22h395q10 0 16.5 -7t6.5 -18v-96zM1044 627v274q0 101 -17 180.5t-56.5 146.5
t-113.5 103.5t-179 36.5q-367 0 -367 -475v-264q0 -475 367 -475q366 0 366 473z" />
    <glyph glyph-name="oe" unicode="&#x153;" horiz-adv-x="1841" 
d="M1739 551q0 -21 -10.5 -33t-28.5 -12h-686v-21q0 -83 12.5 -142t43.5 -106t87.5 -70.5t140.5 -23.5q211 0 365 23h10q13 0 23 -7.5t10 -21.5v-69q0 -21 -8.5 -32.5t-32.5 -15.5q-173 -34 -367 -34q-260 0 -376 168q-120 -168 -365 -168q-221 0 -338 134t-117 365v156
q0 231 117 365.5t338 134.5q247 0 367 -168q117 168 364 168q220 0 335.5 -128t115.5 -351v-111zM1556 643v19q0 170 -65 245.5t-203 75.5q-274 0 -274 -321v-19h542zM834 485v156q0 162 -68.5 252t-208.5 90q-139 0 -206.5 -89.5t-67.5 -252.5v-156q0 -163 67 -252.5
t207 -89.5q139 0 208 89.5t69 252.5z" />
    <glyph glyph-name="Racute" unicode="&#x154;" horiz-adv-x="1280" 
d="M1200 27q0 -11 -7 -19t-19 -8h-132q-22 0 -32 4t-21 23l-366 610h-19h-35q-61 0 -225 6v-602q0 -16 -10.5 -28.5t-26.5 -12.5h-110q-15 0 -26 12t-11 29v1434q0 22 10.5 32t38.5 13q141 16 360 16q574 0 574 -440v-15q0 -165 -87.5 -269.5t-234.5 -143.5l373 -623
q6 -9 6 -18zM958 1081v15q0 149 -95 210.5t-294 61.5q-176 0 -225 -6v-561q180 -4 225 -4q199 0 294 62.5t95 221.5zM920 1931q0 -7 -9 -16l-231 -258q-2 -3 -6.5 -8t-6.5 -7l-5.5 -5.5t-6 -5t-6 -3t-7.5 -2t-9 -0.5h-111q-18 0 -18 14q0 13 8 21l201 254q11 14 16 19
t13 8.5t20 3.5h135q23 0 23 -15z" />
    <glyph glyph-name="racute" unicode="&#x155;" horiz-adv-x="700" 
d="M645 1020q0 -35 -43 -35q-139 0 -283 -86v-858q0 -16 -11.5 -28.5t-28.5 -12.5h-101q-15 0 -27 12t-12 29v1044q0 17 11 29t28 12h96q17 0 28 -12t11 -29v-43q140 99 289 99q43 0 43 -37v-84zM629 1581q0 -8 -8 -16l-232 -258q-2 -3 -6.5 -8t-6.5 -7l-5.5 -5.5t-6 -5
t-6 -3t-7.5 -2t-9 -0.5h-111q-18 0 -18 14q0 13 8 21l201 254q15 19 23 24.5t26 5.5h135q23 0 23 -14z" />
    <glyph glyph-name="Rcommaaccent" unicode="&#x156;" horiz-adv-x="1280" 
d="M608 -100h142q22 0 22 -23l-2 -16l-111 -223q-10 -23 -18.5 -31t-30.5 -8h-84q-18 0 -18 16q0 8 2 16l57 230q8 39 41 39zM1200 27q0 -11 -7 -19t-19 -8h-132q-22 0 -32 4t-21 23l-366 610h-19h-35q-61 0 -225 6v-602q0 -16 -10.5 -28.5t-26.5 -12.5h-110q-15 0 -26 12
t-11 29v1434q0 22 10.5 32t38.5 13q141 16 360 16q574 0 574 -440v-15q0 -165 -87.5 -269.5t-234.5 -143.5l373 -623q6 -9 6 -18zM958 1081v15q0 149 -95 210.5t-294 61.5q-176 0 -225 -6v-561q180 -4 225 -4q199 0 294 62.5t95 221.5z" />
    <glyph glyph-name="rcommaaccent" unicode="&#x157;" horiz-adv-x="700" 
d="M317 -100h142q22 0 22 -23l-2 -16l-110 -223q-10 -23 -19 -31t-31 -8h-83q-19 0 -19 16q0 8 2 16l57 230q8 39 41 39zM645 1020q0 -35 -43 -35q-139 0 -283 -86v-858q0 -16 -11.5 -28.5t-28.5 -12.5h-101q-15 0 -27 12t-12 29v1044q0 17 11 29t28 12h96q17 0 28 -12
t11 -29v-43q140 99 289 99q43 0 43 -37v-84z" />
    <glyph glyph-name="Rcaron" unicode="&#x158;" horiz-adv-x="1280" 
d="M1200 27q0 -11 -7 -19t-19 -8h-132q-22 0 -32 4t-21 23l-366 610h-19h-35q-61 0 -225 6v-602q0 -16 -10.5 -28.5t-26.5 -12.5h-110q-15 0 -26 12t-11 29v1434q0 22 10.5 32t38.5 13q141 16 360 16q574 0 574 -440v-15q0 -165 -87.5 -269.5t-234.5 -143.5l373 -623
q6 -9 6 -18zM958 1081v15q0 149 -95 210.5t-294 61.5q-176 0 -225 -6v-561q180 -4 225 -4q199 0 294 62.5t95 221.5zM985 1931q0 -12 -8 -20l-199 -254q-15 -19 -24 -25t-27 -6h-174q-17 0 -25.5 6t-23.5 25l-201 254q-8 8 -8 20q0 15 18 15h111q7 0 12 -1t10 -5t7.5 -6.5
t8.5 -10t9 -10.5l170 -197l168 197q3 3 9 10.5t8.5 10t7.5 6.5t10 5t12 1h111q18 0 18 -15z" />
    <glyph glyph-name="rcaron" unicode="&#x159;" horiz-adv-x="700" 
d="M645 1020q0 -35 -43 -35q-139 0 -283 -86v-858q0 -16 -11.5 -28.5t-28.5 -12.5h-101q-15 0 -27 12t-12 29v1044q0 17 11 29t28 12h96q17 0 28 -12t11 -29v-43q140 99 289 99q43 0 43 -37v-84zM694 1581q0 -12 -8 -20l-199 -254q-15 -19 -24 -25t-27 -6h-174
q-17 0 -25.5 6t-23.5 25l-201 254q-8 8 -8 20q0 14 19 14h110q7 0 11.5 -1t10 -5t7.5 -5.5t9 -10t9 -10.5l170 -197l168 197q2 2 9 10.5t9 10t7.5 5.5t10 5t11.5 1h111q18 0 18 -14z" />
    <glyph glyph-name="Sacute" unicode="&#x15a;" horiz-adv-x="1126" 
d="M1024 395q0 -63 -13.5 -118.5t-49 -110t-91 -93.5t-145.5 -63t-207 -24q-160 0 -340 28q-25 4 -32 11.5t-7 25.5v82q0 16 10 24.5t25 8.5h6q141 -12 338 -12q174 0 242.5 62t68.5 179q0 75 -51 131t-194 144l-199 121q-148 90 -215.5 177.5t-67.5 205.5q0 183 126 272.5
t364 89.5q194 0 356 -25q35 -7 35 -34v-88q0 -15 -10 -24t-25 -9h-4q-180 12 -352 12q-163 0 -232 -42t-69 -152q0 -69 49.5 -121t173.5 -127l188 -113q177 -105 249.5 -199.5t72.5 -218.5zM844 1931q0 -8 -8 -16l-232 -258q-2 -3 -6.5 -8t-6.5 -7l-5.5 -5.5t-6 -5t-6 -3
t-7.5 -2t-9 -0.5h-111q-18 0 -18 14q0 13 8 21l201 254q11 14 16 19t13 8.5t20 3.5h135q23 0 23 -15z" />
    <glyph glyph-name="sacute" unicode="&#x15b;" horiz-adv-x="954" 
d="M852 283q0 -151 -101.5 -224t-281.5 -73q-204 0 -324 30q-43 10 -43 41v72q0 13 11 22t26 9h8q188 -23 322 -23q104 0 153.5 33t49.5 113q0 45 -33 81t-121 89l-207 122q-101 62 -155 132t-54 161q0 77 27.5 132t79.5 85t116 43t148 13q158 0 320 -27q38 -6 38 -41v-67
q0 -35 -34 -35h-6q-192 16 -318 16q-98 0 -144 -23.5t-46 -95.5q0 -43 32.5 -77t108.5 -78l203 -121q124 -73 174.5 -144.5t50.5 -164.5zM758 1581q0 -8 -8 -16l-232 -258q-2 -3 -6.5 -8t-6.5 -7l-5.5 -5.5t-6 -5t-6 -3t-7.5 -2t-9 -0.5h-111q-18 0 -18 14q0 13 8 21
l201 254q15 19 23 24.5t26 5.5h135q23 0 23 -14z" />
    <glyph glyph-name="Scircumflex" unicode="&#x15c;" horiz-adv-x="1126" 
d="M1024 395q0 -63 -13.5 -118.5t-49 -110t-91 -93.5t-145.5 -63t-207 -24q-160 0 -340 28q-25 4 -32 11.5t-7 25.5v82q0 16 10 24.5t25 8.5h6q141 -12 338 -12q174 0 242.5 62t68.5 179q0 75 -51 131t-194 144l-199 121q-148 90 -215.5 177.5t-67.5 205.5q0 183 126 272.5
t364 89.5q194 0 356 -25q35 -7 35 -34v-88q0 -15 -10 -24t-25 -9h-4q-180 12 -352 12q-163 0 -232 -42t-69 -152q0 -69 49.5 -121t173.5 -127l188 -113q177 -105 249.5 -199.5t72.5 -218.5zM877 1640q0 -14 -19 -14h-106q-6 0 -10.5 1t-7.5 2t-7.5 5t-6 5.5t-7.5 8.5t-8 9
l-168 198l-170 -198q-2 -2 -6.5 -7t-5.5 -6.5t-4.5 -5t-5.5 -4.5t-5.5 -3t-6 -3t-6.5 -1.5t-8 -0.5h-106q-18 0 -18 14q0 13 8 21l196 254q15 19 23.5 25t26.5 6h174q18 0 27 -6t24 -25l194 -254q9 -9 9 -21z" />
    <glyph glyph-name="scircumflex" unicode="&#x15d;" horiz-adv-x="954" 
d="M852 283q0 -151 -101.5 -224t-281.5 -73q-204 0 -324 30q-43 10 -43 41v72q0 13 11 22t26 9h8q188 -23 322 -23q104 0 153.5 33t49.5 113q0 45 -33 81t-121 89l-207 122q-101 62 -155 132t-54 161q0 77 27.5 132t79.5 85t116 43t148 13q158 0 320 -27q38 -6 38 -41v-67
q0 -35 -34 -35h-6q-192 16 -318 16q-98 0 -144 -23.5t-46 -95.5q0 -43 32.5 -77t108.5 -78l203 -121q124 -73 174.5 -144.5t50.5 -164.5zM811 1290q0 -14 -18 -14h-107q-6 0 -10.5 1t-7.5 2t-7.5 5t-6 5.5t-7.5 8.5t-8 9l-168 198l-170 -198q-2 -3 -6.5 -8t-6.5 -7
l-5.5 -5.5t-6 -5t-6 -3t-7.5 -2t-9 -0.5h-107q-18 0 -18 14q0 13 8 21l197 254q15 19 23 24.5t26 5.5h174q18 0 27.5 -6t23.5 -24l195 -254q8 -8 8 -21z" />
    <glyph glyph-name="uni015E" unicode="&#x15e;" horiz-adv-x="1126" 
d="M1024 395q0 -63 -13.5 -118.5t-49 -110t-91 -93.5t-145.5 -63t-207 -24q-160 0 -340 28q-25 4 -32 11.5t-7 25.5v82q0 16 10 24.5t25 8.5h6q141 -12 338 -12q174 0 242.5 62t68.5 179q0 75 -51 131t-194 144l-199 121q-148 90 -215.5 177.5t-67.5 205.5q0 183 126 272.5
t364 89.5q194 0 356 -25q35 -7 35 -34v-88q0 -15 -10 -24t-25 -9h-4q-180 12 -352 12q-163 0 -232 -42t-69 -152q0 -69 49.5 -121t173.5 -127l188 -113q177 -105 249.5 -199.5t72.5 -218.5zM670 -80q0 -8 -8 -16l-232 -258q-2 -3 -6.5 -8t-6.5 -7l-5.5 -5.5t-6 -5t-6 -3
t-7.5 -2t-9 -0.5h-111q-18 0 -18 14q0 13 8 21l199 254q14 18 23.5 24t27.5 6h135q23 0 23 -14z" />
    <glyph glyph-name="uni015F" unicode="&#x15f;" horiz-adv-x="954" 
d="M852 283q0 -151 -101.5 -224t-281.5 -73q-204 0 -324 30q-43 10 -43 41v72q0 13 11 22t26 9h8q188 -23 322 -23q104 0 153.5 33t49.5 113q0 45 -33 81t-121 89l-207 122q-101 62 -155 132t-54 161q0 77 27.5 132t79.5 85t116 43t148 13q158 0 320 -27q38 -6 38 -41v-67
q0 -35 -34 -35h-6q-192 16 -318 16q-98 0 -144 -23.5t-46 -95.5q0 -43 32.5 -77t108.5 -78l203 -121q124 -73 174.5 -144.5t50.5 -164.5zM584 -80q0 -7 -9 -16l-231 -258q-2 -3 -6.5 -8t-6.5 -7l-5.5 -5.5t-6 -5t-6 -3t-7.5 -2t-9 -0.5h-111q-18 0 -18 14q0 13 8 21l199 254
q14 18 23.5 24t27.5 6h135q23 0 23 -14z" />
    <glyph glyph-name="Scaron" unicode="&#x160;" horiz-adv-x="1126" 
d="M1024 395q0 -63 -13.5 -118.5t-49 -110t-91 -93.5t-145.5 -63t-207 -24q-160 0 -340 28q-25 4 -32 11.5t-7 25.5v82q0 16 10 24.5t25 8.5h6q141 -12 338 -12q174 0 242.5 62t68.5 179q0 75 -51 131t-194 144l-199 121q-148 90 -215.5 177.5t-67.5 205.5q0 183 126 272.5
t364 89.5q194 0 356 -25q35 -7 35 -34v-88q0 -15 -10 -24t-25 -9h-4q-180 12 -352 12q-163 0 -232 -42t-69 -152q0 -69 49.5 -121t173.5 -127l188 -113q177 -105 249.5 -199.5t72.5 -218.5zM934 1931q0 -12 -8 -20l-199 -254q-15 -19 -24 -25t-27 -6h-174q-17 0 -25.5 6
t-23.5 25l-201 254q-8 8 -8 20q0 15 18 15h111q7 0 12 -1t10 -5t7.5 -6.5t8.5 -10t9 -10.5l170 -197l168 197q3 3 9 10.5t8.5 10t7.5 6.5t10 5t12 1h110q19 0 19 -15z" />
    <glyph glyph-name="scaron" unicode="&#x161;" horiz-adv-x="954" 
d="M852 283q0 -151 -101.5 -224t-281.5 -73q-204 0 -324 30q-43 10 -43 41v72q0 13 11 22t26 9h8q188 -23 322 -23q104 0 153.5 33t49.5 113q0 45 -33 81t-121 89l-207 122q-101 62 -155 132t-54 161q0 77 27.5 132t79.5 85t116 43t148 13q158 0 320 -27q38 -6 38 -41v-67
q0 -35 -34 -35h-6q-192 16 -318 16q-98 0 -144 -23.5t-46 -95.5q0 -43 32.5 -77t108.5 -78l203 -121q124 -73 174.5 -144.5t50.5 -164.5zM811 1581q0 -12 -8 -20l-199 -254q-15 -19 -24 -25t-27 -6h-174q-17 0 -25.5 6t-23.5 25l-201 254q-8 8 -8 20q0 14 18 14h111
q7 0 11.5 -1t10 -5t7.5 -5.5t9 -10t9 -10.5l170 -197l168 197q2 2 9 10.5t9 10t7.5 5.5t10 5t11.5 1h111q18 0 18 -14z" />
    <glyph glyph-name="Tcommaaccent" unicode="&#x162;" horiz-adv-x="1208" 
d="M541 -100h141q23 0 23 -23l-3 -16l-110 -223q-10 -23 -18.5 -31t-30.5 -8h-84q-19 0 -19 16q0 8 2 16l58 230q8 39 41 39zM1137 1395q0 -15 -11 -24t-28 -9h-400v-1321q0 -16 -10 -28.5t-26 -12.5h-113q-15 0 -26 12t-11 29v1321h-399q-41 0 -41 33v90q0 15 12 26t29 11
h985q17 0 28 -10t11 -27v-90z" />
    <glyph glyph-name="tcommaaccent" unicode="&#x163;" horiz-adv-x="788" 
d="M362 -100h142q22 0 22 -23l-2 -16l-110 -223q-10 -23 -18.5 -31t-30.5 -8h-84q-19 0 -19 16q0 8 2 16l58 230q8 39 40 39zM737 31q0 -30 -37 -35q-68 -10 -133 -10q-75 0 -123.5 11.5t-85 41t-53 83.5t-16.5 138v715l-199 22q-39 3 -39 37v56q0 17 10.5 26.5t28.5 9.5
h199v201q0 15 10 26.5t27 14.5l106 16h6q12 0 21.5 -9.5t9.5 -24.5v-224h221q17 0 29 -12t12 -29v-69q0 -17 -12 -29t-29 -12h-221v-715q0 -81 23 -105t88 -24h114q43 0 43 -29v-71z" />
    <glyph glyph-name="Tcaron" unicode="&#x164;" horiz-adv-x="1208" 
d="M1137 1395q0 -15 -11 -24t-28 -9h-400v-1321q0 -16 -10 -28.5t-26 -12.5h-113q-15 0 -26 12t-11 29v1321h-399q-41 0 -41 33v90q0 15 12 26t29 11h985q17 0 28 -10t11 -27v-90zM950 1931q0 -12 -8 -20l-199 -254q-15 -19 -24 -25t-27 -6h-174q-17 0 -25.5 6t-23.5 25
l-201 254q-8 8 -8 20q0 15 19 15h110q7 0 12 -1t10 -5t7.5 -6.5t8.5 -10t9 -10.5l170 -197l168 197q3 3 9 10.5t8.5 10t7.5 6.5t10 5t12 1h111q18 0 18 -15z" />
    <glyph glyph-name="tcaron" unicode="&#x165;" horiz-adv-x="1050" 
d="M1102 1518q0 -5 -4 -17l-154 -387q-8 -22 -15.5 -30.5t-23.5 -8.5h-84q-24 0 -24 25q0 10 2 14l116 387q6 21 15 30t26 9h119q27 0 27 -22zM737 31q0 -30 -37 -35q-68 -10 -133 -10q-75 0 -123.5 11.5t-85 41t-53 83.5t-16.5 138v715l-199 22q-39 3 -39 37v56
q0 17 10.5 26.5t28.5 9.5h199v201q0 15 10 26.5t27 14.5l106 16h6q12 0 21.5 -9.5t9.5 -24.5v-224h221q17 0 29 -12t12 -29v-69q0 -17 -12 -29t-29 -12h-221v-715q0 -81 23 -105t88 -24h114q43 0 43 -29v-71z" />
    <glyph glyph-name="Tbar" unicode="&#x166;" horiz-adv-x="1208" 
d="M1098 952h-400v-911q0 -16 -10 -28.5t-26 -12.5h-113q-15 0 -26 12t-11 29v911h-399q-41 0 -41 33v90q0 15 12 26t29 11h399v250h-399q-41 0 -41 33v90q0 15 12 26t29 11h985q17 0 28 -10t11 -27v-90q0 -15 -11 -24t-28 -9h-400v-250h400q17 0 28 -10t11 -27v-90
q0 -15 -11 -24t-28 -9z" />
    <glyph glyph-name="tbar" unicode="&#x167;" horiz-adv-x="788" 
d="M737 31q0 -30 -37 -35q-68 -10 -133 -10q-75 0 -123.5 11.5t-85 41t-53 83.5t-16.5 138v367l-199 22q-39 3 -39 37v55q0 17 11 27t28 10h199v197l-199 22q-39 3 -39 37v56q0 17 10.5 26.5t28.5 9.5h199v201q0 15 10 26.5t27 14.5l106 16h6q12 0 21.5 -9.5t9.5 -24.5v-224
h221q17 0 29 -12t12 -29v-69q0 -17 -12 -29t-29 -12h-221v-197h221q17 0 29 -12t12 -29v-69q0 -17 -12 -29t-29 -12h-221v-367q0 -81 23 -105t88 -24h114q43 0 43 -29v-71z" />
    <glyph glyph-name="Utilde" unicode="&#x168;" horiz-adv-x="1355" 
d="M1202 553q0 -287 -134.5 -427t-389.5 -140t-389.5 140t-134.5 427v930q0 16 11 27.5t28 11.5h110q16 0 27.5 -11t11.5 -28v-930q0 -207 76 -307.5t260 -100.5t260 100t76 308v930q0 16 11 27.5t28 11.5h110q16 0 27.5 -11t11.5 -28v-930zM1034 1827q0 -108 -45.5 -161.5
t-146.5 -53.5q-76 0 -131 43l-125 100q-37 30 -51.5 37.5t-32.5 7.5q-35 0 -49.5 -23t-14.5 -71v-43q0 -13 -11 -24t-24 -11h-63q-13 0 -23 10.5t-10 24.5v43q0 109 51.5 166t143.5 57q60 0 123 -49l145 -115q35 -28 72 -28q32 0 46.5 19.5t14.5 70.5v47q0 14 10.5 24.5
t24.5 10.5h63q13 0 23 -10.5t10 -24.5v-47z" />
    <glyph glyph-name="utilde" unicode="&#x169;" horiz-adv-x="1140" 
d="M1001 41q0 -18 -10.5 -29.5t-27.5 -11.5h-103q-17 0 -28 12t-11 29v39q-88 -49 -162.5 -71.5t-162.5 -22.5q-357 0 -357 426v673q0 17 12 29t29 12h99q17 0 28.5 -12t11.5 -29v-673q0 -151 53 -211t173 -60q116 0 276 80v864q0 16 12 28.5t29 12.5h101q15 0 26.5 -12
t11.5 -29v-1044zM940 1477q0 -108 -45.5 -161.5t-146.5 -53.5q-77 0 -132 43l-124 100q-37 30 -51.5 37.5t-32.5 7.5q-35 0 -49.5 -23t-14.5 -71v-43q0 -13 -11 -24t-24 -11h-63q-13 0 -23 10.5t-10 24.5v43q0 109 51.5 166t143.5 57q59 0 122 -49l146 -115
q15 -12 36.5 -20.5t35.5 -8.5q32 0 46.5 20t14.5 71v47q0 14 10.5 24.5t24.5 10.5h63q13 0 23 -10.5t10 -24.5v-47z" />
    <glyph glyph-name="Umacron" unicode="&#x16a;" horiz-adv-x="1355" 
d="M1202 553q0 -287 -134.5 -427t-389.5 -140t-389.5 140t-134.5 427v930q0 16 11 27.5t28 11.5h110q16 0 27.5 -11t11.5 -28v-930q0 -207 76 -307.5t260 -100.5t260 100t76 308v930q0 16 11 27.5t28 11.5h110q16 0 27.5 -11t11.5 -28v-930zM1014 1714q0 -17 -11.5 -26
t-29.5 -9h-590q-18 0 -29.5 9t-11.5 26v70q0 17 11.5 26t29.5 9h590q18 0 29.5 -9t11.5 -26v-70z" />
    <glyph glyph-name="umacron" unicode="&#x16b;" horiz-adv-x="1140" 
d="M1001 41q0 -18 -10.5 -29.5t-27.5 -11.5h-103q-17 0 -28 12t-11 29v39q-88 -49 -162.5 -71.5t-162.5 -22.5q-357 0 -357 426v673q0 17 12 29t29 12h99q17 0 28.5 -12t11.5 -29v-673q0 -151 53 -211t173 -60q116 0 276 80v864q0 16 12 28.5t29 12.5h101q15 0 26.5 -12
t11.5 -29v-1044zM907 1364q0 -17 -11.5 -26t-29.5 -9h-590q-40 0 -40 35v70q0 34 40 34h590q41 0 41 -34v-70z" />
    <glyph glyph-name="Ubreve" unicode="&#x16c;" horiz-adv-x="1355" 
d="M1202 553q0 -287 -134.5 -427t-389.5 -140t-389.5 140t-134.5 427v930q0 16 11 27.5t28 11.5h110q16 0 27.5 -11t11.5 -28v-930q0 -207 76 -307.5t260 -100.5t260 100t76 308v930q0 16 11 27.5t28 11.5h110q16 0 27.5 -11t11.5 -28v-930zM1006 1925v-8
q-10 -135 -108 -212t-226 -77t-226 77t-108 212v8q0 27 22 27h76q17 0 23 -7.5t8 -25.5q9 -79 68 -121.5t137 -42.5t137 42.5t68 121.5q2 18 8 25.5t22 7.5h76q23 0 23 -27z" />
    <glyph glyph-name="ubreve" unicode="&#x16d;" horiz-adv-x="1140" 
d="M1001 41q0 -18 -10.5 -29.5t-27.5 -11.5h-103q-17 0 -28 12t-11 29v39q-88 -49 -162.5 -71.5t-162.5 -22.5q-357 0 -357 426v673q0 17 12 29t29 12h99q17 0 28.5 -12t11.5 -29v-673q0 -151 53 -211t173 -60q116 0 276 80v864q0 16 12 28.5t29 12.5h101q15 0 26.5 -12
t11.5 -29v-1044zM903 1569v-8q-10 -135 -108 -212t-226 -77t-225.5 77t-107.5 212v8q0 26 22 26h76q17 0 23 -7t8 -25q9 -79 67.5 -121.5t136.5 -42.5t137 42.5t68 121.5q2 18 8 25t23 7h76q22 0 22 -26z" />
    <glyph glyph-name="Uring" unicode="&#x16e;" horiz-adv-x="1355" 
d="M1202 553q0 -287 -134.5 -427t-389.5 -140t-389.5 140t-134.5 427v930q0 16 11 27.5t28 11.5h110q16 0 27.5 -11t11.5 -28v-930q0 -207 76 -307.5t260 -100.5t260 100t76 308v930q0 16 11 27.5t28 11.5h110q16 0 27.5 -11t11.5 -28v-930zM887 1798q0 -86 -60.5 -146.5
t-146.5 -60.5t-147.5 60.5t-61.5 146.5t61.5 147.5t147.5 61.5t146.5 -61.5t60.5 -147.5zM788 1800q0 44 -32 75.5t-76 31.5t-75.5 -31.5t-31.5 -75.5t31.5 -76t75.5 -32t76 32t32 76z" />
    <glyph glyph-name="uring" unicode="&#x16f;" horiz-adv-x="1140" 
d="M1001 41q0 -18 -10.5 -29.5t-27.5 -11.5h-103q-17 0 -28 12t-11 29v39q-88 -49 -162.5 -71.5t-162.5 -22.5q-357 0 -357 426v673q0 17 12 29t29 12h99q17 0 28.5 -12t11.5 -29v-673q0 -151 53 -211t173 -60q116 0 276 80v864q0 16 12 28.5t29 12.5h101q15 0 26.5 -12
t11.5 -29v-1044zM778 1440q0 -86 -60.5 -146.5t-146.5 -60.5t-147.5 60.5t-61.5 146.5t61.5 147.5t147.5 61.5t146.5 -61.5t60.5 -147.5zM680 1442q0 44 -32 75t-77 31q-44 0 -75 -31t-31 -75q0 -45 31 -77t75 -32t76.5 32.5t32.5 76.5z" />
    <glyph glyph-name="Uhungarumlaut" unicode="&#x170;" horiz-adv-x="1355" 
d="M1202 553q0 -287 -134.5 -427t-389.5 -140t-389.5 140t-134.5 427v930q0 16 11 27.5t28 11.5h110q16 0 27.5 -11t11.5 -28v-930q0 -207 76 -307.5t260 -100.5t260 100t76 308v930q0 16 11 27.5t28 11.5h110q16 0 27.5 -11t11.5 -28v-930zM1137 1931q0 -7 -9 -16
l-229 -258q-2 -3 -6.5 -8t-6.5 -7l-5.5 -5.5t-6 -5t-6 -3t-7.5 -2t-9 -0.5h-111q-18 0 -18 14q0 13 8 21l199 254q15 19 24 25t27 6h133q23 0 23 -15zM778 1931q0 -8 -8 -16l-229 -258q-2 -3 -6.5 -8t-6.5 -7l-5.5 -5.5t-6 -5t-6 -3t-7.5 -2t-9 -0.5h-111q-18 0 -18 14
q0 13 8 21l198 254q14 18 24 24.5t28 6.5h133q22 0 22 -15z" />
    <glyph glyph-name="uhungarumlaut" unicode="&#x171;" horiz-adv-x="1140" 
d="M1001 41q0 -18 -10.5 -29.5t-27.5 -11.5h-103q-17 0 -28 12t-11 29v39q-88 -49 -162.5 -71.5t-162.5 -22.5q-357 0 -357 426v673q0 17 12 29t29 12h99q17 0 28.5 -12t11.5 -29v-673q0 -151 53 -211t173 -60q116 0 276 80v864q0 16 12 28.5t29 12.5h101q15 0 26.5 -12
t11.5 -29v-1044zM1028 1581q0 -8 -8 -16l-229 -258q-2 -2 -6.5 -7t-5.5 -6.5t-4.5 -5t-5.5 -4.5t-5.5 -3t-6 -3t-6.5 -1.5t-8 -0.5h-110q-19 0 -19 14q0 12 9 21l198 254q14 18 23.5 24t27.5 6h134q22 0 22 -14zM670 1581q0 -8 -8 -16l-230 -258q-2 -3 -6.5 -8t-6.5 -7
l-5.5 -5.5t-6 -5t-6 -3t-7.5 -2t-9 -0.5h-111q-18 0 -18 14q0 13 8 21l199 254q14 18 23.5 24t27.5 6h133q23 0 23 -14z" />
    <glyph glyph-name="Uogonek" unicode="&#x172;" horiz-adv-x="1355" 
d="M1202 553q2 -184 -48.5 -298.5t-178.5 -203.5l-197 -137q-38 -26 -48.5 -34.5t-30.5 -26.5t-25.5 -32.5t-5.5 -33.5q0 -39 33 -58.5t108 -19.5q29 0 62.5 5.5t56.5 10.5t26 5q11 0 11 -17v-80q0 -10 -5 -14.5t-18 -7.5q-63 -21 -156 -21q-268 0 -268 197q0 122 131 186
l23 13q-252 2 -385 141.5t-133 425.5v930q0 16 11 27.5t28 11.5h110q16 0 27.5 -11t11.5 -28v-930q0 -207 76 -307.5t260 -100.5t260 100t76 308v930q0 16 11 27.5t28 11.5h110q16 0 27.5 -11t11.5 -28v-930z" />
    <glyph glyph-name="uogonek" unicode="&#x173;" horiz-adv-x="1140" 
d="M825 41v41q-89 -50 -165.5 -73t-163.5 -23q-357 0 -357 426v673q0 17 12 29t29 12h99q17 0 28.5 -12t11.5 -29v-673q0 -151 53 -211t173 -60q116 0 276 80v864q0 16 12 28.5t29 12.5h101q15 0 26.5 -12t11.5 -29v-1044q0 -22 -16 -33l-137 -94q-61 -42 -86 -69.5
t-25 -67.5q0 -34 24 -51t91 -17q29 0 59 5.5t49.5 10.5t22.5 5q10 0 10 -17v-80q0 -17 -22 -22q-63 -21 -142 -21q-243 0 -243 191q0 63 32.5 105.5t100.5 86.5z" />
    <glyph glyph-name="Wcircumflex" unicode="&#x174;" horiz-adv-x="1689" 
d="M1620 1487v-6l-227 -1385q-10 -59 -41.5 -81.5t-85.5 -22.5h-88q-42 0 -73.5 28t-43.5 74l-201 758q-3 13 -5 15.5t-7 2.5h-2h-2q-4 0 -5.5 -0.5t-3.5 -4.5t-4 -13l-202 -758q-12 -46 -43.5 -74t-73.5 -28h-86q-54 0 -85.5 22.5t-41.5 81.5l-227 1385v6q0 15 9.5 25
t24.5 10h119q13 0 22.5 -9t12.5 -26l199 -1305q1 -5 2 -10.5t1 -8.5t1 -6t2.5 -4t3.5 -1q7 0 14 30l201 758q21 82 96 82h131q76 0 97 -82l200 -758q7 -30 15 -30q2 0 3.5 1t2.5 4t1 6t1 8.5t2 10.5l199 1305q6 35 34 35h119q15 0 25 -10t10 -25zM1186 1640q0 -14 -19 -14
h-106q-6 0 -10.5 1t-7.5 2t-7.5 5t-6 5.5t-7.5 8.5t-8 9l-168 198l-170 -198q-2 -3 -6.5 -8t-6.5 -7l-5.5 -5.5t-6 -5t-6 -3t-7.5 -2t-9 -0.5h-107q-18 0 -18 14q0 13 8 21l197 254q11 14 16 19t13 8.5t20 3.5h174q18 0 27 -6t24 -25l195 -254q8 -8 8 -21z" />
    <glyph glyph-name="wcircumflex" unicode="&#x175;" horiz-adv-x="1609" 
d="M1532 1085v-8l-199 -950q-20 -95 -49 -118t-123 -23q-81 0 -112.5 26t-55.5 121l-178 696q-3 11 -4.5 13t-5.5 2t-5.5 -2t-4.5 -13l-179 -696q-23 -90 -55.5 -118.5t-111.5 -28.5q-94 0 -123.5 23.5t-49.5 117.5l-198 950v8q0 16 11 28.5t28 12.5h110q13 0 23 -10t12 -22
l170 -934q3 -17 7 -21t10 -4q10 0 16 25l201 786q17 62 82 62h114q65 0 82 -62l201 -786q6 -25 16 -25q4 0 6.5 1t5.5 6.5t5 17.5l170 934q2 13 11.5 22.5t22.5 9.5h111q17 0 28 -12.5t11 -28.5zM1147 1290q0 -14 -19 -14h-106q-6 0 -10.5 1t-7.5 2t-7.5 5t-6 5.5t-7.5 8.5
t-8 9l-168 198l-170 -198q-2 -3 -6.5 -8t-6.5 -7l-5.5 -5.5t-6 -5t-6 -3t-7.5 -2t-9 -0.5h-107q-18 0 -18 14q0 13 8 21l197 254q15 19 23 24.5t26 5.5h174q18 0 27.5 -6t23.5 -24l195 -254q8 -8 8 -21z" />
    <glyph glyph-name="Ycircumflex" unicode="&#x176;" horiz-adv-x="1193" 
d="M1124 1493q0 -11 -6 -23l-317 -712q-49 -108 -111 -135v-582q0 -15 -11 -28t-26 -13h-112q-15 0 -26 13t-11 28v582q-60 23 -111 135l-315 712q-6 12 -6 23q0 12 9.5 20.5t24.5 8.5h125q10 0 21 -9t16 -20l283 -664q23 -53 47 -53q12 0 22.5 10.5t24.5 42.5l285 664
q12 29 35 29h125q15 0 24.5 -8.5t9.5 -20.5zM942 1642q0 -14 -18 -14h-107q-6 0 -10.5 1t-7.5 2t-7.5 5t-6 5.5t-7.5 8.5t-8 9l-168 199l-170 -199q-2 -3 -6.5 -8t-6.5 -7l-5.5 -5.5t-6 -5t-6 -3t-7.5 -2t-9 -0.5h-106q-19 0 -19 14q0 13 8 21l197 254q11 14 16 19t13 8.5
t20 3.5h174q18 0 27 -6t24 -25l195 -254q8 -8 8 -21z" />
    <glyph glyph-name="ycircumflex" unicode="&#x177;" horiz-adv-x="1093" 
d="M1014 1092q0 -11 -2 -15l-338 -1179q-33 -116 -73.5 -178.5t-112 -94t-189.5 -31.5q-90 0 -172 19q-43 10 -43 33v75q0 33 39 33h6q135 -12 182 -12q91 0 134.5 35t68.5 139l21 84h-29q-26 0 -45 4.5t-39.5 18t-37.5 43t-30 75.5l-272 936q-2 4 -2 15q0 34 37 34h112
q12 0 22 -9.5t13 -22.5l242 -889q7 -28 16.5 -36.5t22.5 -8.5h33l249 936q3 12 14.5 21t24.5 9h115q15 0 24 -9.5t9 -24.5zM889 1290q0 -14 -19 -14h-106q-6 0 -10.5 1t-7.5 2t-7.5 5t-6 5.5t-7.5 8.5t-8 9l-168 198l-170 -198q-2 -3 -6.5 -8t-6.5 -7l-5.5 -5.5t-6 -5t-6 -3
t-7.5 -2t-9 -0.5h-107q-18 0 -18 14q0 13 8 21l197 254q15 19 23 24.5t26 5.5h174q18 0 27.5 -6t23.5 -24l195 -254q8 -8 8 -21z" />
    <glyph glyph-name="Ydieresis" unicode="&#x178;" horiz-adv-x="1193" 
d="M1124 1493q0 -11 -6 -23l-317 -712q-49 -108 -111 -135v-582q0 -15 -11 -28t-26 -13h-112q-15 0 -26 13t-11 28v582q-60 23 -111 135l-315 712q-6 12 -6 23q0 12 9.5 20.5t24.5 8.5h125q10 0 21 -9t16 -20l283 -664q23 -53 47 -53q12 0 22.5 10.5t24.5 42.5l285 664
q12 29 35 29h125q15 0 24.5 -8.5t9.5 -20.5zM856 1681q0 -17 -12.5 -28t-28.5 -11h-80q-16 0 -28.5 11t-12.5 28v166q0 15 13 28t28 13h80q15 0 28 -13t13 -28v-166zM498 1681q0 -17 -12.5 -28t-28.5 -11h-80q-16 0 -28.5 11t-12.5 28v166q0 15 13 28t28 13h80q15 0 28 -13
t13 -28v-166z" />
    <glyph glyph-name="Zacute" unicode="&#x179;" horiz-adv-x="1222" 
d="M1114 37q0 -15 -12 -26t-29 -11h-788q-99 0 -134.5 29t-35.5 110q0 73 30 119l734 1067q6 9 6 16q0 15 -21 15h-680q-16 0 -28.5 9.5t-12.5 25.5v96q0 15 12 25t29 10h729q93 0 133.5 -28t40.5 -108q0 -70 -32 -120l-731 -1067q-7 -11 -7 -19q0 -12 21 -12h735
q18 0 29.5 -9t11.5 -26v-96zM891 1931q0 -8 -8 -16l-232 -258q-2 -3 -6.5 -8t-6.5 -7l-5.5 -5.5t-6 -5t-6 -3t-7.5 -2t-9 -0.5h-110q-19 0 -19 14q0 13 8 21l201 254q11 14 16 19t13 8.5t20 3.5h135q23 0 23 -15z" />
    <glyph glyph-name="zacute" unicode="&#x17a;" horiz-adv-x="987" 
d="M885 41q0 -17 -12 -29t-29 -12h-619q-62 0 -93.5 33t-31.5 80v39q0 42 10 70.5t37 62.5l529 657q8 12 8 19q0 14 -20 14h-498q-17 0 -29 12t-12 29v69q0 17 12 29t29 12h602q115 0 115 -100v-49q0 -57 -47 -113l-539 -674q-10 -10 -10 -22q0 -16 16 -16h541q17 0 29 -12
t12 -29v-70zM815 1581q0 -8 -8 -16l-232 -258q-2 -3 -6.5 -8t-6.5 -7l-5.5 -5.5t-6 -5t-6 -3t-7.5 -2t-9 -0.5h-110q-19 0 -19 14q0 12 9 21l200 254q15 19 23 24.5t26 5.5h136q22 0 22 -14z" />
    <glyph glyph-name="Zdotaccent" unicode="&#x17b;" horiz-adv-x="1222" 
d="M1114 37q0 -15 -12 -26t-29 -11h-788q-99 0 -134.5 29t-35.5 110q0 73 30 119l734 1067q6 9 6 16q0 15 -21 15h-680q-16 0 -28.5 9.5t-12.5 25.5v96q0 15 12 25t29 10h729q93 0 133.5 -28t40.5 -108q0 -70 -32 -120l-731 -1067q-7 -11 -7 -19q0 -12 21 -12h735
q18 0 29.5 -9t11.5 -26v-96zM700 1698q0 -17 -11.5 -29t-26.5 -12h-99q-16 0 -28.5 12t-12.5 29v172q0 15 13 27t28 12h99q15 0 26.5 -12t11.5 -27v-172z" />
    <glyph glyph-name="zdotaccent" unicode="&#x17c;" horiz-adv-x="987" 
d="M885 41q0 -17 -12 -29t-29 -12h-619q-62 0 -93.5 33t-31.5 80v39q0 42 10 70.5t37 62.5l529 657q8 12 8 19q0 14 -20 14h-498q-17 0 -29 12t-12 29v69q0 17 12 29t29 12h602q115 0 115 -100v-49q0 -57 -47 -113l-539 -674q-10 -10 -10 -22q0 -16 16 -16h541q17 0 29 -12
t12 -29v-70zM584 1348q0 -17 -12 -29t-27 -12h-99q-15 0 -27.5 12t-12.5 29v172q0 15 12.5 27t27.5 12h99q15 0 27 -12t12 -27v-172z" />
    <glyph glyph-name="Zcaron" unicode="&#x17d;" horiz-adv-x="1222" 
d="M1114 37q0 -15 -12 -26t-29 -11h-788q-99 0 -134.5 29t-35.5 110q0 73 30 119l734 1067q6 9 6 16q0 15 -21 15h-680q-16 0 -28.5 9.5t-12.5 25.5v96q0 15 12 25t29 10h729q93 0 133.5 -28t40.5 -108q0 -70 -32 -120l-731 -1067q-7 -11 -7 -19q0 -12 21 -12h735
q18 0 29.5 -9t11.5 -26v-96zM963 1931q0 -11 -9 -20l-198 -254q-15 -19 -24 -25t-27 -6h-175q-17 0 -25.5 6t-23.5 25l-200 254q-9 9 -9 20q0 15 19 15h110q7 0 12 -1t10.5 -5.5t7.5 -6t9 -10t9 -10.5l169 -197l168 197q2 2 9 10.5t9 10t7.5 6t10.5 5.5t12 1h110
q19 0 19 -15z" />
    <glyph glyph-name="zcaron" unicode="&#x17e;" horiz-adv-x="987" 
d="M885 41q0 -17 -12 -29t-29 -12h-619q-62 0 -93.5 33t-31.5 80v39q0 42 10 70.5t37 62.5l529 657q8 12 8 19q0 14 -20 14h-498q-17 0 -29 12t-12 29v69q0 17 12 29t29 12h602q115 0 115 -100v-49q0 -57 -47 -113l-539 -674q-10 -10 -10 -22q0 -16 16 -16h541q17 0 29 -12
t12 -29v-70zM846 1581q0 -12 -8 -20l-199 -254q-15 -19 -24 -25t-27 -6h-174q-17 0 -25.5 6t-23.5 25l-201 254q-8 8 -8 20q0 14 18 14h111q7 0 11.5 -1t10 -5t7.5 -5.5t9 -10t9 -10.5l170 -197l168 197q2 2 9 10.5t9 10t7.5 5.5t10 5t11.5 1h110q19 0 19 -14z" />
    <glyph glyph-name="florin" unicode="&#x192;" 
d="M1122 1520v-7l-8 -65q-3 -31 -49 -31h-113q-74 0 -107.5 -30t-43.5 -109l-56 -401h293q15 0 25 -9t10 -22v-6l-10 -76q-2 -15 -15 -26t-30 -11h-293l-102 -731q-22 -151 -106.5 -216t-221.5 -65q-56 0 -141 11q-35 5 -35 28v6l8 66q3 31 49 31h113q74 0 107.5 30
t43.5 109l103 731h-262q-15 0 -26 9t-11 24v4l10 76q1 15 15.5 26t31.5 11h262l55 401q21 151 106 216t222 65q56 0 141 -11q35 -5 35 -28z" />
    <glyph glyph-name="AEacute" unicode="&#x1fc;" horiz-adv-x="1759" 
d="M1647 29q0 -9 -6 -18.5t-15 -10.5q-133 -14 -338 -14q-220 0 -328 90.5t-108 290.5v135h-490l-131 -471q-3 -12 -13.5 -21.5t-22.5 -9.5h-121q-15 0 -25 9.5t-10 23.5q0 10 2 14l379 1321q46 154 209 154h997q8 0 14.5 -9.5t6.5 -19.5v-109q0 -24 -23 -24h-586v-490h568
q17 0 29 -12t12 -29v-77q0 -17 -12 -29t-29 -12h-568v-344q0 -84 17.5 -126.5t72 -64.5t162.5 -22h334q10 0 16.5 -7t6.5 -18v-100zM852 664v696h-223q-32 0 -41 -35l-187 -661h451zM1370 1933q0 -8 -8 -16l-232 -258q-2 -3 -6.5 -8t-6.5 -7l-5.5 -5.5t-6 -5t-6 -3t-7.5 -2
t-9 -0.5h-110q-19 0 -19 14q0 12 9 21l200 254q11 14 16 19t13 8.5t20 3.5h136q22 0 22 -15z" />
    <glyph glyph-name="aeacute" unicode="&#x1fd;" horiz-adv-x="1746" 
d="M1645 551q0 -21 -10.5 -33t-28.5 -12h-682v-66q0 -157 72.5 -230t226.5 -73q155 0 350 29h4h6q33 0 33 -29v-69q0 -21 -8.5 -32.5t-32.5 -15.5q-173 -34 -363 -34q-124 0 -207 26.5t-147 93.5q-68 -59 -165.5 -89.5t-203.5 -30.5q-79 0 -147.5 19.5t-124 59t-87.5 106
t-32 153.5v18q0 173 113 252.5t381 79.5h153v82q0 128 -50 179.5t-171 51.5q-149 0 -313 -16h-4h-6q-37 0 -37 33v71q0 33 43 39q162 27 317 27q245 0 340 -144q122 144 334 144q217 0 332 -138.5t115 -365.5v-86zM1466 643v10q0 334 -268 334q-131 0 -202.5 -87.5
t-71.5 -246.5v-10h542zM745 193v350h-153q-124 0 -191.5 -21t-93.5 -62.5t-26 -117.5v-18q0 -102 65 -148.5t168 -46.5q146 0 231 64zM1212 1581q0 -8 -8 -16l-231 -258q-2 -3 -6.5 -8t-6.5 -7l-5.5 -5.5t-6 -5t-6 -3t-7.5 -2t-9 -0.5h-111q-18 0 -18 14q0 13 8 21l201 254
q15 19 23 24.5t26 5.5h135q22 0 22 -14z" />
    <glyph glyph-name="Oslashacute" unicode="&#x1fe;" horiz-adv-x="1353" 
d="M1296 1505q0 -7 -6 -16l-145 -201q86 -153 86 -395v-264q0 -167 -40.5 -292t-115.5 -201t-174 -113t-223 -37q-234 0 -375 129l-63 -90q-29 -39 -52 -39h-108q-10 0 -16.5 6.5t-6.5 15.5q0 8 6 17l148 204q-88 151 -88 400v264q0 167 41 292t116 201t174.5 113t223.5 37
q237 0 377 -131l59 84q29 39 53 39h107q10 0 16 -7t6 -16zM946 1255q-91 113 -268 113q-367 0 -367 -475v-264q0 -118 27 -221zM1042 629v264q0 129 -24 217l-608 -848q90 -108 268 -108q176 0 270 113t94 362zM993 1931q0 -8 -8 -16l-231 -258q-2 -3 -6.5 -8t-6.5 -7
l-5.5 -5.5t-6 -5t-6 -3t-7.5 -2t-9 -0.5h-111q-18 0 -18 14q0 13 8 21l200 254q15 19 23.5 25t26.5 6h135q22 0 22 -15z" />
    <glyph glyph-name="oslashacute" unicode="&#x1ff;" horiz-adv-x="1116" 
d="M1081 1178q0 -15 -8 -23l-143 -192q84 -128 84 -322v-156q0 -231 -118 -365t-339 -134q-172 0 -285 86l-90 -123q-16 -21 -32 -21h-101q-16 0 -16 17q0 14 8 22l145 197q-84 128 -84 321v156q0 231 117 365.5t338 134.5q174 0 287 -86l86 119q16 20 33 20h102
q16 0 16 -16zM741 920q-69 63 -184 63q-274 0 -274 -342v-156q0 -94 20 -161zM834 485v156q0 83 -23 160l-438 -594q67 -64 184 -64q141 0 209 89.5t68 252.5zM864 1581q0 -8 -8 -16l-231 -258q-2 -3 -6.5 -8t-6.5 -7l-5.5 -5.5t-6 -5t-6 -3t-7.5 -2t-9 -0.5h-111
q-18 0 -18 14q0 13 8 21l200 254q14 18 23 24t27 6h135q22 0 22 -14z" />
    <glyph glyph-name="uni0218" unicode="&#x218;" horiz-adv-x="1126" 
d="M512 -100h141q23 0 23 -23l-2 -16l-111 -223q-10 -23 -18.5 -31t-30.5 -8h-84q-18 0 -18 16q0 8 2 16l57 230q8 39 41 39zM1024 395q0 -63 -13.5 -118.5t-49 -110t-91 -93.5t-145.5 -63t-207 -24q-160 0 -340 28q-25 4 -32 11.5t-7 25.5v82q0 16 10 24.5t25 8.5h6
q141 -12 338 -12q174 0 242.5 62t68.5 179q0 75 -51 131t-194 144l-199 121q-148 90 -215.5 177.5t-67.5 205.5q0 183 126 272.5t364 89.5q194 0 356 -25q35 -7 35 -34v-88q0 -15 -10 -24t-25 -9h-4q-180 12 -352 12q-163 0 -232 -42t-69 -152q0 -69 49.5 -121t173.5 -127
l188 -113q177 -105 249.5 -199.5t72.5 -218.5z" />
    <glyph glyph-name="uni0219" unicode="&#x219;" horiz-adv-x="954" 
d="M403 -100h142q22 0 22 -23l-2 -16l-110 -223q-10 -23 -18.5 -31t-30.5 -8h-84q-19 0 -19 16q0 8 2 16l57 230q8 39 41 39zM852 283q0 -151 -101.5 -224t-281.5 -73q-204 0 -324 30q-43 10 -43 41v72q0 13 11 22t26 9h8q188 -23 322 -23q104 0 153.5 33t49.5 113
q0 45 -33 81t-121 89l-207 122q-101 62 -155 132t-54 161q0 77 27.5 132t79.5 85t116 43t148 13q158 0 320 -27q38 -6 38 -41v-67q0 -35 -34 -35h-6q-192 16 -318 16q-98 0 -144 -23.5t-46 -95.5q0 -43 32.5 -77t108.5 -78l203 -121q124 -73 174.5 -144.5t50.5 -164.5z" />
    <glyph glyph-name="uni021A" unicode="&#x21a;" horiz-adv-x="1208" 
d="M541 -100h141q23 0 23 -23l-3 -16l-110 -223q-10 -23 -18.5 -31t-30.5 -8h-84q-19 0 -19 16q0 8 2 16l58 230q8 39 41 39zM1137 1395q0 -15 -11 -24t-28 -9h-400v-1321q0 -16 -10 -28.5t-26 -12.5h-113q-15 0 -26 12t-11 29v1321h-399q-41 0 -41 33v90q0 15 12 26t29 11
h985q17 0 28 -10t11 -27v-90z" />
    <glyph glyph-name="uni021B" unicode="&#x21b;" horiz-adv-x="788" 
d="M362 -100h142q22 0 22 -23l-2 -16l-110 -223q-10 -23 -18.5 -31t-30.5 -8h-84q-19 0 -19 16q0 8 2 16l58 230q8 39 40 39zM737 31q0 -30 -37 -35q-68 -10 -133 -10q-75 0 -123.5 11.5t-85 41t-53 83.5t-16.5 138v715l-199 22q-39 3 -39 37v56q0 17 10.5 26.5t28.5 9.5
h199v201q0 15 10 26.5t27 14.5l106 16h6q12 0 21.5 -9.5t9.5 -24.5v-224h221q17 0 29 -12t12 -29v-69q0 -17 -12 -29t-29 -12h-221v-715q0 -81 23 -105t88 -24h114q43 0 43 -29v-71z" />
    <glyph glyph-name="circumflex" unicode="&#x2c6;" horiz-adv-x="763" 
d="M723 1290q0 -14 -18 -14h-107q-6 0 -10.5 1t-7.5 2t-7.5 5t-6 5.5t-7.5 8.5t-8 9l-168 198l-170 -198q-2 -3 -6.5 -8t-6.5 -7l-5.5 -5.5t-6 -5t-6 -3t-7.5 -2t-9 -0.5h-107q-18 0 -18 14q0 13 8 21l197 254q15 19 23 24.5t26 5.5h174q18 0 27.5 -6t23.5 -24l195 -254
q8 -8 8 -21z" />
    <glyph glyph-name="caron" unicode="&#x2c7;" horiz-adv-x="763" 
d="M727 1581q0 -12 -8 -20l-199 -254q-15 -19 -24 -25t-27 -6h-174q-17 0 -25.5 6t-23.5 25l-201 254q-8 8 -8 20q0 14 18 14h111q7 0 11.5 -1t10 -5t7.5 -5.5t9 -10t9 -10.5l170 -197l168 197q2 2 9 10.5t9 10t7.5 5.5t10 5t11.5 1h111q18 0 18 -14z" />
    <glyph glyph-name="uni02C9" unicode="&#x2c9;" horiz-adv-x="763" 
d="M719 1417q0 -17 -11.5 -26t-29.5 -9h-590q-18 0 -29.5 9t-11.5 26v70q0 17 11.5 26t29.5 9h590q18 0 29.5 -9t11.5 -26v-70z" />
    <glyph glyph-name="breve" unicode="&#x2d8;" horiz-adv-x="763" 
d="M717 1569v-8q-10 -135 -108 -212t-226 -77t-226 77t-108 212v8q0 26 23 26h75q17 0 23 -7t8 -25q9 -79 68 -121.5t137 -42.5t137 42.5t68 121.5q2 18 7.5 25t22.5 7h76q23 0 23 -26z" />
    <glyph glyph-name="dotaccent" unicode="&#x2d9;" horiz-adv-x="763" 
d="M471 1348q0 -17 -12 -29t-27 -12h-98q-16 0 -28.5 12t-12.5 29v172q0 15 13 27t28 12h98q15 0 27 -12t12 -27v-172z" />
    <glyph glyph-name="ring" unicode="&#x2da;" horiz-adv-x="763" 
d="M590 1440q0 -86 -60.5 -146.5t-146.5 -60.5t-147.5 60.5t-61.5 146.5t61.5 147.5t147.5 61.5t146.5 -61.5t60.5 -147.5zM492 1442q0 44 -32 75t-77 31q-44 0 -75.5 -31t-31.5 -75t31.5 -76.5t75.5 -32.5t76.5 32.5t32.5 76.5z" />
    <glyph glyph-name="ogonek" unicode="&#x2db;" horiz-adv-x="749" 
d="M608 -367q0 -17 -22 -22q-63 -21 -156 -21q-268 0 -268 197q0 37 12.5 68.5t36 54.5t40.5 35.5t42 27.5l135 82q29 21 51 21h107q19 0 23 -15t-9 -24l-178 -123q-44 -30 -62 -43.5t-33.5 -36t-15.5 -47.5q0 -78 142 -78q29 0 62.5 5.5t56 10.5t26.5 5q10 0 10 -17v-80z
" />
    <glyph glyph-name="tilde" unicode="&#x2dc;" horiz-adv-x="1009" 
d="M858 1497q0 -108 -45.5 -161.5t-146.5 -53.5q-76 0 -131 43l-125 100q-37 30 -51.5 37.5t-32.5 7.5q-35 0 -49.5 -23t-14.5 -71v-43q0 -13 -11 -24t-24 -11h-63q-13 0 -23 10.5t-10 24.5v43q0 109 51.5 166t143.5 57q60 0 123 -49l145 -114q15 -12 36.5 -20.5t35.5 -8.5
q32 0 46.5 19.5t14.5 70.5v47q0 14 10.5 24.5t24.5 10.5h63q13 0 23 -10.5t10 -24.5v-47z" />
    <glyph glyph-name="hungarumlaut" unicode="&#x2dd;" horiz-adv-x="763" 
d="M844 1581q0 -8 -8 -16l-230 -258q-2 -3 -6.5 -8t-6.5 -7l-5.5 -5.5t-6 -5t-6 -3t-7.5 -2t-9 -0.5h-110q-19 0 -19 14q0 13 8 21l199 254q14 18 23.5 24t27.5 6h133q23 0 23 -14zM485 1581q0 -8 -8 -16l-229 -258q-2 -3 -6.5 -8t-6.5 -7l-5.5 -5.5t-6 -5t-6 -3t-7.5 -2
t-9 -0.5h-111q-18 0 -18 14q0 13 8 21l199 254q14 18 23.5 24t27.5 6h133q22 0 22 -14z" />
    <glyph glyph-name="uni03A9" unicode="&#x3a9;" horiz-adv-x="1212" 
d="M1139 43q0 -43 -47 -43h-371q-43 0 -43 43v231q0 27 5.5 36.5t23.5 15.5q125 44 190.5 157t65.5 281v180q0 436 -357 436q-356 0 -356 -436v-180q0 -168 65.5 -281t190.5 -157q18 -6 23.5 -15.5t5.5 -36.5v-231q0 -43 -43 -43h-371q-47 0 -47 43v70q0 41 47 41h248v75
q-157 67 -230 208t-73 327v180q0 287 141.5 444.5t398.5 157.5t399 -157.5t142 -444.5v-180q0 -186 -73 -327t-230 -208v-75h248q47 0 47 -41v-70z" />
    <glyph glyph-name="uni03BC" unicode="&#x3bc;" horiz-adv-x="1140" 
d="M1001 90q0 -36 -38 -47q-153 -57 -379 -57q-162 0 -265 59v-405q0 -17 -11.5 -29t-28.5 -12h-99q-17 0 -29 12t-12 29v1445q0 16 11 28.5t28 12.5h103q15 0 26.5 -12t11.5 -29v-673q0 -142 64 -207.5t201 -65.5q136 0 237 29v917q0 16 12 28.5t29 12.5h101q15 0 26.5 -12
t11.5 -29v-995z" />
    <glyph glyph-name="pi" unicode="&#x3c0;" horiz-adv-x="1130" 
d="M1057 961h-142v-687q0 -94 19.5 -123.5t83.5 -29.5h49q20 0 20 -23v-88v-7t-1 -5t-1.5 -4t-2 -3t-2.5 -2t-3 -1.5t-3.5 -1t-4 -1.5t-4.5 -1q-45 -9 -82 -9q-137 0 -191.5 67t-54.5 232v687h-340v-920q0 -41 -28 -41h-123q-31 0 -31 41v920h-141q-18 0 -24.5 5.5
t-6.5 24.5v103q0 20 6.5 26t24.5 6h983q18 0 24 -6t6 -26v-103q0 -19 -6 -24.5t-24 -5.5z" />
    <glyph glyph-name="Wgrave" unicode="&#x1e80;" horiz-adv-x="1689" 
d="M1620 1487v-6l-227 -1385q-10 -59 -41.5 -81.5t-85.5 -22.5h-88q-42 0 -73.5 28t-43.5 74l-201 758q-3 13 -5 15.5t-7 2.5h-2h-2q-4 0 -5.5 -0.5t-3.5 -4.5t-4 -13l-202 -758q-12 -46 -43.5 -74t-73.5 -28h-86q-54 0 -85.5 22.5t-41.5 81.5l-227 1385v6q0 15 9.5 25
t24.5 10h119q13 0 22.5 -9t12.5 -26l199 -1305q1 -5 2 -10.5t1 -8.5t1 -6t2.5 -4t3.5 -1q7 0 14 30l201 758q21 82 96 82h131q76 0 97 -82l200 -758q7 -30 15 -30q2 0 3.5 1t2.5 4t1 6t1 8.5t2 10.5l199 1305q6 35 34 35h119q15 0 25 -10t10 -25zM991 1640q0 -14 -18 -14
h-111q-6 0 -10.5 1t-7.5 2t-7.5 5t-6 5.5t-7.5 8.5t-8 9l-231 258q-9 9 -9 16q0 15 23 15h135q18 0 27 -6t24 -25l199 -254q8 -8 8 -21z" />
    <glyph glyph-name="wgrave" unicode="&#x1e81;" horiz-adv-x="1609" 
d="M1532 1085v-8l-199 -950q-20 -95 -49 -118t-123 -23q-81 0 -112.5 26t-55.5 121l-178 696q-3 11 -4.5 13t-5.5 2t-5.5 -2t-4.5 -13l-179 -696q-23 -90 -55.5 -118.5t-111.5 -28.5q-94 0 -123.5 23.5t-49.5 117.5l-198 950v8q0 16 11 28.5t28 12.5h110q13 0 23 -10t12 -22
l170 -934q3 -17 7 -21t10 -4q10 0 16 25l201 786q17 62 82 62h114q65 0 82 -62l201 -786q6 -25 16 -25q4 0 6.5 1t5.5 6.5t5 17.5l170 934q2 13 11.5 22.5t22.5 9.5h111q17 0 28 -12.5t11 -28.5zM950 1290q0 -14 -18 -14h-111q-6 0 -10.5 1t-7.5 2t-7.5 5t-6 5.5t-7.5 8.5
t-8 9l-231 258q-8 8 -8 16q0 14 22 14h135q18 0 27.5 -6t23.5 -24l199 -254q8 -8 8 -21z" />
    <glyph glyph-name="Wacute" unicode="&#x1e82;" horiz-adv-x="1689" 
d="M1620 1487v-6l-227 -1385q-10 -59 -41.5 -81.5t-85.5 -22.5h-88q-42 0 -73.5 28t-43.5 74l-201 758q-3 13 -5 15.5t-7 2.5h-2h-2q-4 0 -5.5 -0.5t-3.5 -4.5t-4 -13l-202 -758q-12 -46 -43.5 -74t-73.5 -28h-86q-54 0 -85.5 22.5t-41.5 81.5l-227 1385v6q0 15 9.5 25
t24.5 10h119q13 0 22.5 -9t12.5 -26l199 -1305q1 -5 2 -10.5t1 -8.5t1 -6t2.5 -4t3.5 -1q7 0 14 30l201 758q21 82 96 82h131q76 0 97 -82l200 -758q7 -30 15 -30q2 0 3.5 1t2.5 4t1 6t1 8.5t2 10.5l199 1305q6 35 34 35h119q15 0 25 -10t10 -25zM1145 1933q0 -8 -8 -16
l-232 -258q-2 -3 -6.5 -8t-6.5 -7l-5.5 -5.5t-6 -5t-6 -3t-7.5 -2t-9 -0.5h-110q-19 0 -19 14q0 13 8 21l201 254q11 14 16 19t13 8.5t20 3.5h135q23 0 23 -15z" />
    <glyph glyph-name="wacute" unicode="&#x1e83;" horiz-adv-x="1609" 
d="M1532 1085v-8l-199 -950q-20 -95 -49 -118t-123 -23q-81 0 -112.5 26t-55.5 121l-178 696q-3 11 -4.5 13t-5.5 2t-5.5 -2t-4.5 -13l-179 -696q-23 -90 -55.5 -118.5t-111.5 -28.5q-94 0 -123.5 23.5t-49.5 117.5l-198 950v8q0 16 11 28.5t28 12.5h110q13 0 23 -10t12 -22
l170 -934q3 -17 7 -21t10 -4q10 0 16 25l201 786q17 62 82 62h114q65 0 82 -62l201 -786q6 -25 16 -25q4 0 6.5 1t5.5 6.5t5 17.5l170 934q2 13 11.5 22.5t22.5 9.5h111q17 0 28 -12.5t11 -28.5zM1110 1581q0 -8 -8 -16l-232 -258q-2 -3 -6.5 -8t-6.5 -7l-5.5 -5.5t-6 -5
t-6 -3t-7.5 -2t-9 -0.5h-110q-19 0 -19 14q0 13 8 21l201 254q15 19 23 24.5t26 5.5h135q23 0 23 -14z" />
    <glyph glyph-name="Wdieresis" unicode="&#x1e84;" horiz-adv-x="1689" 
d="M1620 1487v-6l-227 -1385q-10 -59 -41.5 -81.5t-85.5 -22.5h-88q-42 0 -73.5 28t-43.5 74l-201 758q-3 13 -5 15.5t-7 2.5h-2h-2q-4 0 -5.5 -0.5t-3.5 -4.5t-4 -13l-202 -758q-12 -46 -43.5 -74t-73.5 -28h-86q-54 0 -85.5 22.5t-41.5 81.5l-227 1385v6q0 15 9.5 25
t24.5 10h119q13 0 22.5 -9t12.5 -26l199 -1305q1 -5 2 -10.5t1 -8.5t1 -6t2.5 -4t3.5 -1q7 0 14 30l201 758q21 82 96 82h131q76 0 97 -82l200 -758q7 -30 15 -30q2 0 3.5 1t2.5 4t1 6t1 8.5t2 10.5l199 1305q6 35 34 35h119q15 0 25 -10t10 -25zM1104 1665q0 -17 -12.5 -28
t-28.5 -11h-80q-16 0 -28.5 11t-12.5 28v166q0 15 13 28t28 13h80q15 0 28 -13t13 -28v-166zM745 1665q0 -17 -12 -28t-28 -11h-80q-16 0 -28.5 11t-12.5 28v166q0 15 13 28t28 13h80q15 0 27.5 -13t12.5 -28v-166z" />
    <glyph glyph-name="wdieresis" unicode="&#x1e85;" horiz-adv-x="1609" 
d="M1532 1085v-8l-199 -950q-20 -95 -49 -118t-123 -23q-81 0 -112.5 26t-55.5 121l-178 696q-3 11 -4.5 13t-5.5 2t-5.5 -2t-4.5 -13l-179 -696q-23 -90 -55.5 -118.5t-111.5 -28.5q-94 0 -123.5 23.5t-49.5 117.5l-198 950v8q0 16 11 28.5t28 12.5h110q13 0 23 -10t12 -22
l170 -934q3 -17 7 -21t10 -4q10 0 16 25l201 786q17 62 82 62h114q65 0 82 -62l201 -786q6 -25 16 -25q4 0 6.5 1t5.5 6.5t5 17.5l170 934q2 13 11.5 22.5t22.5 9.5h111q17 0 28 -12.5t11 -28.5zM1065 1352q0 -17 -12.5 -28t-28.5 -11h-80q-16 0 -28.5 11t-12.5 28v166
q0 15 13 28t28 13h80q15 0 28 -13t13 -28v-166zM707 1352q0 -17 -12.5 -28t-28.5 -11h-80q-16 0 -28.5 11t-12.5 28v166q0 15 13 28t28 13h80q15 0 28 -13t13 -28v-166z" />
    <glyph glyph-name="Ygrave" unicode="&#x1ef2;" horiz-adv-x="1193" 
d="M1124 1493q0 -11 -6 -23l-317 -712q-49 -108 -111 -135v-582q0 -15 -11 -28t-26 -13h-112q-15 0 -26 13t-11 28v582q-60 23 -111 135l-315 712q-6 12 -6 23q0 12 9.5 20.5t24.5 8.5h125q10 0 21 -9t16 -20l283 -664q23 -53 47 -53q12 0 22.5 10.5t24.5 42.5l285 664
q12 29 35 29h125q15 0 24.5 -8.5t9.5 -20.5zM729 1640q0 -14 -18 -14h-111q-6 0 -10.5 1t-7.5 2t-7.5 5t-6 5.5t-7.5 8.5t-8 9l-231 258q-9 9 -9 16q0 15 23 15h135q18 0 27 -6t24 -25l199 -254q8 -8 8 -21z" />
    <glyph glyph-name="ygrave" unicode="&#x1ef3;" horiz-adv-x="1093" 
d="M1014 1092q0 -11 -2 -15l-338 -1179q-33 -116 -73.5 -178.5t-112 -94t-189.5 -31.5q-90 0 -172 19q-43 10 -43 33v75q0 33 39 33h6q135 -12 182 -12q91 0 134.5 35t68.5 139l21 84h-29q-26 0 -45 4.5t-39.5 18t-37.5 43t-30 75.5l-272 936q-2 4 -2 15q0 34 37 34h112
q12 0 22 -9.5t13 -22.5l242 -889q7 -28 16.5 -36.5t22.5 -8.5h33l249 936q3 12 14.5 21t24.5 9h115q15 0 24 -9.5t9 -24.5zM688 1290q0 -14 -18 -14h-111q-6 0 -10.5 1t-7.5 2t-7.5 5t-6 5.5t-7.5 8.5t-8 9l-231 258q-9 9 -9 16q0 14 23 14h135q18 0 27.5 -6t23.5 -24
l199 -254q8 -8 8 -21z" />
    <glyph glyph-name="endash" unicode="&#x2013;" horiz-adv-x="634" 
d="M666 539q0 -15 -11 -25t-28 -10h-619q-17 0 -28 10t-11 25v79q0 15 11 26t28 11h619q17 0 28 -11t11 -26v-79z" />
    <glyph glyph-name="emdash" unicode="&#x2014;" horiz-adv-x="1228" 
d="M1260 539q0 -15 -11 -25t-28 -10h-1213q-17 0 -28 10t-11 25v79q0 15 11 26t28 11h1213q17 0 28 -11t11 -26v-79z" />
    <glyph glyph-name="quoteleft" unicode="&#x2018;" horiz-adv-x="380" 
d="M322 1520q0 -10 -3 -19l-75 -387q-8 -39 -41 -39h-121q-23 0 -23 23q0 10 2 16l125 387q6 21 15 30t24 9h78q19 0 19 -20z" />
    <glyph glyph-name="quoteright" unicode="&#x2019;" horiz-adv-x="380" 
d="M322 1518q0 -8 -3 -17l-124 -387q-6 -21 -15 -30t-24 -9h-78q-19 0 -19 21q0 12 2 18l76 387q8 39 41 39h121q23 0 23 -22z" />
    <glyph glyph-name="quotesinglbase" unicode="&#x201a;" horiz-adv-x="380" 
d="M346 242q0 -5 -4 -17l-154 -387q-6 -16 -9.5 -23t-10.5 -11.5t-18 -4.5h-84q-25 0 -25 25q0 10 2 14l117 387q6 21 15 30t26 9h118q27 0 27 -22z" />
    <glyph glyph-name="quotedblleft" unicode="&#x201c;" horiz-adv-x="688" 
d="M629 1520q0 -13 -2 -19l-76 -387q-8 -39 -41 -39h-121q-22 0 -22 23q0 10 2 16l125 387q6 22 14.5 30.5t23.5 8.5h78q19 0 19 -20zM322 1520q0 -10 -3 -19l-75 -387q-8 -39 -41 -39h-121q-23 0 -23 23q0 10 2 16l125 387q6 21 15 30t24 9h78q19 0 19 -20z" />
    <glyph glyph-name="quotedblright" unicode="&#x201d;" horiz-adv-x="688" 
d="M629 1518q0 -11 -2 -17l-125 -387q-6 -21 -15 -30t-24 -9h-78q-18 0 -18 21q0 12 2 18l75 387q8 39 41 39h121q23 0 23 -22zM322 1518q0 -8 -3 -17l-124 -387q-6 -21 -15 -30t-24 -9h-78q-19 0 -19 21q0 12 2 18l76 387q8 39 41 39h121q23 0 23 -22z" />
    <glyph glyph-name="quotedblbase" unicode="&#x201e;" horiz-adv-x="688" 
d="M715 242q0 -5 -4 -17l-154 -387q-8 -22 -15.5 -30.5t-23.5 -8.5h-84q-24 0 -24 25q0 10 2 14l116 387q6 21 15 30t26 9h119q27 0 27 -22zM346 242q0 -5 -4 -17l-154 -387q-6 -16 -9.5 -23t-10.5 -11.5t-18 -4.5h-84q-25 0 -25 25q0 10 2 14l117 387q6 21 15 30t26 9h118
q27 0 27 -22z" />
    <glyph glyph-name="dagger" unicode="&#x2020;" horiz-adv-x="827" 
d="M752 1014q0 -15 -11 -24t-28 -9h-224v-940q0 -41 -32 -41h-117q-33 0 -33 41v940h-192q-17 0 -28 9t-11 24v92q0 31 39 31h192v364q0 16 9.5 27.5t25.5 11.5h115q14 0 23 -11.5t9 -27.5v-364h224q39 0 39 -31v-92z" />
    <glyph glyph-name="daggerdbl" unicode="&#x2021;" horiz-adv-x="827" 
d="M752 584q0 -15 -11 -24t-28 -9h-224v-510q0 -41 -32 -41h-117q-33 0 -33 41v510h-192q-17 0 -28 9t-11 24v92q0 31 39 31h192v274h-192q-17 0 -28 9t-11 24v92q0 31 39 31h192v364q0 16 9.5 27.5t25.5 11.5h115q14 0 23 -11.5t9 -27.5v-364h224q39 0 39 -31v-92
q0 -15 -11 -24t-28 -9h-224v-274h224q39 0 39 -31v-92z" />
    <glyph glyph-name="bullet" unicode="&#x2022;" horiz-adv-x="856" 
d="M754 752q0 -135 -95.5 -230.5t-230.5 -95.5t-230.5 95.5t-95.5 230.5t95.5 230t230.5 95t230.5 -95t95.5 -230z" />
    <glyph glyph-name="ellipsis" unicode="&#x2026;" horiz-adv-x="1241" 
d="M1122 39q0 -17 -11.5 -28t-27.5 -11h-98q-16 0 -28.5 11t-12.5 28v192q0 15 13 27t28 12h98q15 0 27 -12t12 -27v-192zM711 39q0 -17 -12.5 -28t-28.5 -11h-99q-16 0 -27.5 11t-11.5 28v192q0 15 12 27t27 12h99q15 0 28 -12t13 -27v-192zM297 39q0 -17 -11.5 -28
t-27.5 -11h-98q-16 0 -28.5 11t-12.5 28v192q0 15 13 27t28 12h98q15 0 27 -12t12 -27v-192z" />
    <glyph glyph-name="perthousand" unicode="&#x2030;" horiz-adv-x="2322" 
d="M2230 317q0 -164 -71.5 -247.5t-202.5 -83.5q-132 0 -204.5 83.5t-72.5 247.5v191q0 165 72.5 248.5t204.5 83.5t203 -83t71 -249v-191zM1534 317q0 -164 -71.5 -247.5t-202.5 -83.5q-132 0 -204.5 83.5t-72.5 247.5v191q0 165 72.5 248.5t204.5 83.5t203 -83t71 -249
v-191zM1331 1509q0 -6 -10 -26l-856 -1450q-13 -23 -22 -32t-23 -9h-107q-16 0 -16 12t10 29l856 1450q14 23 23 31t24 8h105q16 0 16 -13zM643 1016q0 -165 -71.5 -248.5t-202.5 -83.5q-132 0 -204.5 84t-72.5 248v190q0 165 72.5 247.5t204.5 82.5t203 -82.5t71 -247.5
v-190zM2103 317v191q0 215 -147 215q-150 0 -150 -215v-191q0 -215 150 -215q147 0 147 215zM1407 317v191q0 215 -147 215q-150 0 -150 -215v-191q0 -215 150 -215q147 0 147 215zM516 1016v190q0 215 -147 215q-150 0 -150 -215v-190q0 -215 150 -215q147 0 147 215z" />
    <glyph glyph-name="guilsinglleft" unicode="&#x2039;" horiz-adv-x="724" 
d="M614 162q0 -19 -22 -19h-119q-22 0 -43 21l-346 346q-23 23 -23 57q0 35 23 58l346 346q20 20 43 20h119q22 0 22 -18q0 -15 -12 -27l-364 -379l364 -379q12 -12 12 -26z" />
    <glyph glyph-name="guilsinglright" unicode="&#x203a;" horiz-adv-x="724" 
d="M664 567q0 -34 -23 -57l-346 -346q-21 -21 -43 -21h-119q-22 0 -22 19q0 14 12 26l364 379l-364 379q-12 12 -12 27q0 18 22 18h119q23 0 43 -20l346 -346q23 -23 23 -58z" />
    <glyph glyph-name="fraction" unicode="&#x2044;" horiz-adv-x="522" 
d="M756 1522q35 0 12 -39l-856 -1450q-13 -23 -22 -32t-23 -9h-96q-17 0 -22 11t5 30l862 1460q12 20 18.5 24.5t22.5 4.5h99z" />
    <glyph glyph-name="n.superior" unicode="&#x207f;" horiz-adv-x="667" 
d="M586 690q0 -14 -10 -23.5t-25 -9.5h-53q-14 0 -23.5 9.5t-9.5 23.5v379q0 79 -27.5 110t-89.5 31t-145 -39v-481q0 -11 -10 -22t-23 -11h-55q-13 0 -23 9.5t-10 23.5v588q0 14 9 23.5t24 9.5h55q14 0 23.5 -9.5t9.5 -23.5v-4q82 43 174 43q209 0 209 -248v-379z" />
    <glyph glyph-name="franc" unicode="&#x20a3;" horiz-adv-x="1128" 
d="M1016 1393q0 -11 -6.5 -18t-16.5 -7h-395q-108 0 -162.5 -22t-72 -64.5t-17.5 -126.5v-285h629q17 0 29 -12t12 -29v-77q0 -17 -12 -29t-29 -12h-629v-195h242q17 0 29 -12t12 -29v-78q0 -17 -12 -29t-29 -12h-242v-315q0 -17 -12 -29t-29 -12h-104q-17 0 -29 12t-12 29
v315h-119q-17 0 -29 12t-12 29v78q0 17 12 29t29 12h119v639q0 200 108 290.5t328 90.5q270 0 399 -12q9 -1 15 -10.5t6 -18.5v-102z" />
    <glyph glyph-name="lira" unicode="&#x20a4;" 
d="M911 444h-438v-45q0 -113 -72 -243h654q41 0 41 -31v-90q0 -17 -11.5 -26t-29.5 -9h-817q-17 0 -26 9.5t-9 21.5v80q0 7 2 14t4.5 11.5t7 11.5t6.5 10q36 62 50 112.5t14 128.5v45h-107q-17 0 -27 10.5t-10 26.5v86q0 15 12 26t29 11h103v148h-107q-17 0 -27 10.5
t-10 25.5v86q0 15 12 26t29 11h103v93q0 132 22 224.5t73.5 160t139.5 99.5t217 32q151 0 318 -27q24 -4 31.5 -11.5t7.5 -23.5v-84q0 -35 -31 -35h-10q-207 23 -316 23q-158 0 -212 -74.5t-54 -283.5v-93h440q17 0 28 -11t11 -26v-86q0 -15 -12 -25.5t-29 -10.5h-438v-148
h440q17 0 28 -11t11 -26v-86q0 -15 -12 -26t-29 -11z" />
    <glyph glyph-name="peseta" unicode="&#x20a7;" horiz-adv-x="2957" 
d="M1122 1065q0 -459 -573 -459q-72 0 -205 10v-575q0 -16 -10.5 -28.5t-26.5 -12.5h-110q-15 0 -26 12t-11 29v1427q0 46 49 52q141 16 340 16q573 0 573 -444v-27zM936 1065v27q0 153 -93 219.5t-294 66.5q-107 0 -205 -8v-600q188 -8 205 -8q209 0 298 71t89 232z
M1952 31q0 -30 -37 -35q-68 -10 -133 -10q-75 0 -123.5 11.5t-85.5 41t-53.5 83.5t-16.5 138v715l-198 22q-39 3 -39 37v56q0 17 10.5 26.5t28.5 9.5h198v201q0 15 10 26.5t27 14.5l107 16h6q12 0 21 -9.5t9 -24.5v-224h222q17 0 29 -12t12 -29v-69q0 -17 -12 -29t-29 -12
h-222v-715q0 -81 23 -105t88 -24h115q43 0 43 -29v-71zM2855 283q0 -151 -101.5 -224t-281.5 -73q-204 0 -324 30q-43 10 -43 41v72q0 13 11 22t26 9h8q188 -23 322 -23q104 0 153.5 33t49.5 113q0 45 -33 81t-121 89l-207 122q-101 62 -155 132t-54 161q0 77 27.5 132
t79.5 85t116 43t148 13q158 0 320 -27q38 -6 38 -41v-67q0 -35 -34 -35h-7q-192 16 -317 16q-98 0 -144 -23.5t-46 -95.5q0 -43 32.5 -77t108.5 -78l203 -121q124 -73 174.5 -144.5t50.5 -164.5z" />
    <glyph glyph-name="Euro" unicode="&#x20ac;" 
d="M1135 53q0 -34 -41 -41q-56 -10 -82.5 -14t-84.5 -8t-141 -4q-77 0 -149.5 16t-146.5 56.5t-131 101.5t-96.5 159.5t-47.5 223.5h-68q-17 0 -29 12t-12 29v57q0 17 12 29t29 12h66v166h-66q-17 0 -29 12t-12 29v57q0 17 12 29t29 12h68q9 124 49 221.5t96.5 158t131 99.5
t146.5 54.5t148 15.5q37 0 71 -1.5t71 -6t56.5 -7.5t61.5 -9.5t52 -8.5q32 -4 32 -26v-105q0 -22 -24 -22h-6q-222 18 -312 18q-73 0 -135 -20t-116 -62.5t-89 -118.5t-45 -180h594q15 0 25 -9.5t10 -23.5q0 -1 -1 -4t-1 -4l-14 -57q-11 -41 -41 -41h-576v-166h527
q13 0 21.5 -8.5t8.5 -22.5q0 -1 -1 -4.5t-1 -5.5l-14 -57q-11 -41 -41 -41h-498q7 -85 32 -152t61.5 -111t84.5 -72.5t99.5 -41t109.5 -12.5q109 0 306 16h8q33 0 33 -33v-84z" />
    <glyph glyph-name="afii61289" unicode="&#x2113;" horiz-adv-x="921" 
d="M852 135q17 -29 -6 -49q-53 -47 -137 -78t-162 -31q-149 0 -215 83.5t-66 254.5v220l-127 -105q-11 -10 -25 -10.5t-24 10.5l-22 35q-17 27 4 45l194 164v559q0 188 71 279.5t224 91.5t226 -75.5t73 -189.5q0 -313 -411 -682v-333q0 -193 141 -193q83 0 182 64
q31 22 53 -5zM743 1339q0 162 -147 162q-87 0 -117 -61t-30 -207v-434q154 157 224 280t70 260z" />
    <glyph glyph-name="trademark" unicode="&#x2122;" horiz-adv-x="1617" 
d="M1530 709q0 -9 -6 -15t-15 -6h-84q-20 0 -20 21v491q0 45 -2 72.5t-10 54t-21.5 40.5t-38 25t-59 15t-84.5 4v-702q0 -9 -6 -15t-15 -6h-86q-20 0 -20 21v702q-103 0 -217 -12v-690q0 -21 -19 -21h-84q-20 0 -20 21v759q0 20 7 28.5t24 10.5q208 21 372 21q75 0 128.5 -5
t101.5 -18.5t78.5 -37t53 -60t32.5 -87.5t10 -120v-491zM649 1440q0 -14 -10.5 -21.5t-24.5 -7.5h-198v-690q0 -12 -10 -22.5t-23 -10.5h-66q-13 0 -21.5 10t-8.5 23v690h-203q-13 0 -23 7.5t-10 21.5v51q0 13 10 22t23 9h530q13 0 24 -9t11 -22v-51z" />
    <glyph glyph-name="Omega" unicode="&#x2126;" horiz-adv-x="1212" 
d="M1139 43q0 -43 -47 -43h-371q-43 0 -43 43v231q0 27 5.5 36.5t23.5 15.5q125 44 190.5 157t65.5 281v180q0 436 -357 436q-356 0 -356 -436v-180q0 -168 65.5 -281t190.5 -157q18 -6 23.5 -15.5t5.5 -36.5v-231q0 -43 -43 -43h-371q-47 0 -47 43v70q0 41 47 41h248v75
q-157 67 -230 208t-73 327v180q0 287 141.5 444.5t398.5 157.5t399 -157.5t142 -444.5v-180q0 -186 -73 -327t-230 -208v-75h248q47 0 47 -41v-70z" />
    <glyph glyph-name="estimated" unicode="&#x212e;" horiz-adv-x="1241" 
d="M1182 578h-879v-396q135 -129 311 -129q67 0 124.5 14.5t99.5 36.5t81 58t66.5 70t58.5 81l64 -39q-43 -67 -87 -115.5t-103 -89.5t-135 -62t-169 -21q-163 0 -291 81.5t-196 216.5t-68 296q0 164 67 298t197 215t300 81q169 0 298 -82.5t195 -217t66 -296.5zM936 645
v334q-59 54 -143.5 90.5t-169.5 36.5q-196 0 -320 -127v-334h633z" />
    <glyph glyph-name="onethird" unicode="&#x2153;" horiz-adv-x="1529" 
d="M1188 1509q0 -6 -10 -26l-856 -1450q-13 -23 -22.5 -32t-23.5 -9h-100q-20 0 -20 16q0 14 8 25l856 1450q14 23 23 31t24 8h104q17 0 17 -13zM248 1376l-131 -55q-35 -11 -35 27v57q0 20 20 27l164 77q27 13 66 13h12q16 0 24.5 -6.5t9.5 -13t1 -19.5v-774
q0 -14 -10.5 -26.5t-24.5 -12.5h-61q-15 0 -25 12t-10 27v667zM1448 244q0 -128 -78.5 -190t-212.5 -62q-78 0 -190 22q-13 3 -23 13t-10 24v37q0 37 39 37q109 -16 184 -16q82 0 119 32t37 103v22q0 47 -26.5 84t-86.5 37h-201q-34 0 -34 33v41q0 35 34 35h201
q62 0 87.5 34.5t25.5 81.5v15q0 61 -36 88.5t-120 27.5q-42 0 -164 -16q-3 0 -11 -1t-13 -1q-15 0 -25 10t-10 27v37q0 27 31 39q102 20 192 20q140 0 215.5 -53t75.5 -178v-15q0 -114 -88 -172q88 -54 88 -174v-22z" />
    <glyph glyph-name="twothirds" unicode="&#x2154;" horiz-adv-x="1814" 
d="M604 1315q0 -67 -34.5 -118.5t-112.5 -109.5q-100 -66 -107 -71q-87 -58 -117 -104.5t-30 -114.5v-9h354q15 0 26 -9t11 -25v-47q0 -16 -11.5 -26.5t-25.5 -10.5h-438q-14 0 -25.5 10.5t-11.5 26.5v90q0 187 176 303l113 74h-2q66 48 86 73t20 68q0 51 -35 74.5
t-114 23.5q-77 0 -199 -18q-15 0 -24 10t-9 27v38q0 27 31 37q86 21 201 21q141 0 209.5 -52t68.5 -161zM1399 1522q35 0 12 -39l-856 -1450q-13 -23 -22 -32t-23 -9h-96q-17 0 -22 11t5 30l863 1460q12 20 18.5 24.5t21.5 4.5h99zM1733 244q0 -128 -78.5 -190t-212.5 -62
q-79 0 -191 22q-32 8 -32 37v37q0 37 38 37q109 -16 185 -16q82 0 118.5 32t36.5 103v22q0 47 -26 84t-86 37h-201q-35 0 -35 33v41q0 35 35 35h201q62 0 87 34t25 82v15q0 61 -35.5 88.5t-119.5 27.5q-42 0 -164 -16q-2 0 -11 -1t-14 -1q-15 0 -24.5 10t-9.5 27v37
q0 28 30 39q102 20 193 20q140 0 215.5 -53t75.5 -178v-15q0 -114 -88 -172q88 -54 88 -174v-22z" />
    <glyph glyph-name="oneeighth" unicode="&#x215b;" horiz-adv-x="1554" 
d="M1165 1522q36 0 13 -39l-856 -1450q-13 -23 -22.5 -32t-23.5 -9h-96q-17 0 -21.5 11t5.5 30l862 1460q12 20 18.5 24.5t22.5 4.5h98zM248 1376l-131 -55q-35 -11 -35 27v57q0 20 20 27l164 77q27 13 66 13h12q16 0 24.5 -6.5t9.5 -13t1 -19.5v-774q0 -14 -10.5 -26.5
t-24.5 -12.5h-61q-15 0 -25 12t-10 27v667zM1473 244q0 -122 -80.5 -187t-204.5 -65h-10q-123 0 -204 65t-81 187v20q0 48 25 98t67 80q-42 31 -66 76.5t-24 95.5v11q0 117 77.5 175t205.5 58h10q129 0 205.5 -57.5t76.5 -175.5v-11q0 -107 -90 -172q43 -30 68 -78.5
t25 -99.5v-20zM1339 244v20q0 48 -30 86.5t-90 38.5h-70q-62 0 -92.5 -38.5t-30.5 -86.5v-20q0 -64 39 -99.5t113 -35.5h10q74 0 112.5 35.5t38.5 99.5zM1341 614v11q0 59 -39 89.5t-114 30.5h-10q-152 0 -152 -120v-11q0 -49 30 -82.5t93 -33.5h70q62 0 92 33.5t30 82.5z
" />
    <glyph glyph-name="threeeighths" unicode="&#x215c;" horiz-adv-x="1705" 
d="M1624 244q0 -122 -80.5 -187t-204.5 -65h-10q-123 0 -204 65t-81 187v20q0 48 25.5 98t67.5 80q-42 31 -66 76.5t-24 95.5v11q0 117 77.5 175t204.5 58h10q129 0 206 -57.5t77 -175.5v-11q0 -107 -90 -172q43 -30 67.5 -78.5t24.5 -99.5v-20zM1491 244v20
q0 48 -30.5 86.5t-90.5 38.5h-70q-62 0 -92 -38t-30 -87v-20q0 -64 38.5 -99.5t112.5 -35.5h10q74 0 113 35.5t39 99.5zM1493 614v11q0 58 -39.5 89t-114.5 31h-10q-151 0 -151 -120v-11q0 -50 29.5 -83t92.5 -33h70q62 0 92.5 33.5t30.5 82.5zM1317 1522q35 0 12 -39
l-856 -1450q-13 -23 -22 -32t-23 -9h-96q-17 0 -22 11t5 30l863 1460q12 20 18.5 24.5t22.5 4.5h98zM596 913q0 -128 -78 -189.5t-213 -61.5q-78 0 -190 22q-13 3 -23 13t-10 24v37q0 37 39 37q116 -17 184 -17q82 0 119 32t37 103v23q0 47 -26.5 84t-86.5 37h-201
q-34 0 -34 33v40q0 35 34 35h201q62 0 87.5 34.5t25.5 82.5v14q0 61 -36 89t-120 28q-42 0 -164 -16q-3 0 -11 -1t-13 -1q-15 0 -25 10t-10 27v36q0 27 31 39q107 21 192 21q140 0 215.5 -53.5t75.5 -178.5v-14q0 -114 -88 -172q88 -54 88 -174v-23z" />
    <glyph glyph-name="fiveeighths" unicode="&#x215d;" horiz-adv-x="1697" 
d="M1309 1522q35 0 12 -39l-856 -1450q-13 -23 -22 -32t-23 -9h-96q-17 0 -22 11t5 30l862 1460q12 20 18.5 24.5t22.5 4.5h99zM1616 244q0 -122 -80.5 -187t-204.5 -65h-10q-123 0 -204 65t-81 187v20q0 48 25 98t67 80q-42 31 -66 76.5t-24 95.5v11q0 117 77.5 175
t205.5 58h10q129 0 206 -57.5t77 -175.5v-11q0 -107 -90 -172q43 -30 67.5 -78.5t24.5 -99.5v-20zM1483 244v20q0 48 -30.5 86.5t-90.5 38.5h-70q-62 0 -92.5 -38.5t-30.5 -86.5v-20q0 -64 39 -99.5t113 -35.5h10q74 0 113 35.5t39 99.5zM1485 614v11q0 58 -39.5 89
t-114.5 31h-10q-152 0 -152 -120v-11q0 -49 30 -82.5t93 -33.5h70q62 0 92.5 33.5t30.5 82.5zM608 934q0 -129 -78 -200.5t-219 -71.5q-117 0 -196 20q-33 10 -33 37v41q0 35 39 35q102 -17 190 -17q166 0 166 156v18q0 72 -50 100.5t-165 28.5h-133q-12 0 -22.5 12
t-10.5 27l29 367q3 15 14 25t25 10h381q16 0 26.5 -10t10.5 -27v-49q0 -15 -11 -24t-26 -9h-303l-15 -205h35q171 0 258.5 -55.5t87.5 -190.5v-18z" />
    <glyph glyph-name="seveneighths" unicode="&#x215e;" horiz-adv-x="1585" 
d="M1196 1522q35 0 12 -39l-856 -1450q-13 -23 -22 -32t-23 -9h-96q-17 0 -21.5 11t5.5 30l862 1460q12 20 18.5 24.5t22.5 4.5h98zM1503 244q0 -122 -80 -187t-204 -65h-11q-123 0 -203.5 65t-80.5 187v20q0 48 25 98t67 80q-42 31 -66 76.5t-24 95.5v11q0 117 77.5 175
t204.5 58h11q129 0 205.5 -57.5t76.5 -175.5v-11q0 -107 -90 -172q43 -30 67.5 -78.5t24.5 -99.5v-20zM1370 244v20q0 48 -30.5 86.5t-90.5 38.5h-69q-62 0 -92.5 -38.5t-30.5 -86.5v-20q0 -64 38.5 -99.5t112.5 -35.5h11q74 0 112.5 35.5t38.5 99.5zM1372 614v11
q0 59 -39 89.5t-114 30.5h-11q-151 0 -151 -120v-11q0 -49 30 -82.5t93 -33.5h69q62 0 92.5 33.5t30.5 82.5zM156 719l327 684h-362q-16 0 -27.5 9.5t-11.5 23.5v47q0 15 12 27t27 12h420q44 0 62 -19.5t18 -54.5q0 -40 -17 -78l-319 -682q-9 -18 -35 -18h-74
q-20 0 -25 14.5t5 34.5z" />
    <glyph glyph-name="partialdiff" unicode="&#x2202;" horiz-adv-x="1146" 
d="M1065 971q0 -214 -45 -475q-93 -516 -537 -516q-200 0 -300.5 103t-100.5 288q0 81 27 247q43 255 175 371.5t347 116.5q75 0 146.5 -24.5t115.5 -73.5q-2 8 -6 28q-3 75 -13.5 134.5t-39 120.5t-74 102t-121 66.5t-176.5 25.5q-100 0 -205 -17q-38 -7 -35 21l8 59
q2 19 9 28t26 13q105 21 219 21q152 0 264.5 -45t181 -130t101.5 -200.5t33 -263.5zM862 727q0 115 -54 173t-177 58q-282 0 -338 -358q-27 -181 -27 -231q0 -244 232 -244q146 0 226.5 92t109.5 268q28 162 28 242z" />
    <glyph glyph-name="Delta" unicode="&#x2206;" horiz-adv-x="1296" 
d="M1237 33q0 -14 -9 -23.5t-26 -9.5h-1108q-15 0 -25 9.5t-10 23.5q0 10 2 14l379 1333q24 85 81.5 120.5t127.5 35.5q69 0 126 -34.5t81 -119.5l379 -1335q2 -4 2 -14zM1008 162l-320 1175q-10 37 -39 37q-31 0 -41 -37l-319 -1175h719z" />
    <glyph glyph-name="product" unicode="&#x220f;" horiz-adv-x="1312" 
d="M1270 1374q0 -20 -23 -20h-147v-1471q0 -20 -11 -28.5t-24 -8.5h-115q-35 0 -35 37v1471h-516v-1471q0 -37 -34 -37h-115q-13 0 -24 8.5t-11 28.5v1471h-149q-23 0 -23 20v125q0 14 5 18.5t18 4.5h1181q13 0 18 -4.5t5 -18.5v-125z" />
    <glyph glyph-name="summation" unicode="&#x2211;" horiz-adv-x="1058" 
d="M946 -121q0 -19 -5.5 -26t-22.5 -7h-771q-21 0 -27.5 10t-6.5 31v95q0 30 12 49l391 628q6 10 6 25t-6 25l-391 628q-12 19 -12 49v95q0 21 6.5 31t27.5 10h771q17 0 22.5 -7t5.5 -26v-98q0 -18 -5.5 -26.5t-22.5 -8.5h-570q-7 0 -9 -6t3 -13l363 -583q12 -18 12 -41v-58
q0 -23 -12 -41l-363 -583q-5 -7 -3 -13t9 -6h570q17 0 22.5 -8.5t5.5 -26.5v-98z" />
    <glyph glyph-name="minus" unicode="&#x2212;" 
d="M1077 760q0 -33 -41 -33h-850q-41 0 -41 33v82q0 32 41 32h850q41 0 41 -32v-82z" />
    <glyph glyph-name="uni2215" unicode="&#x2215;" horiz-adv-x="522" 
d="M756 1522q35 0 12 -39l-856 -1450q-13 -23 -22 -32t-23 -9h-96q-17 0 -22 11t5 30l862 1460q12 20 18.5 24.5t22.5 4.5h99z" />
    <glyph glyph-name="uni2219" unicode="&#x2219;" horiz-adv-x="438" 
d="M307 707q0 -17 -11 -29t-28 -12h-98q-15 0 -27 12t-12 29v190q0 16 11 27.5t28 11.5h98q16 0 27.5 -11t11.5 -28v-190z" />
    <glyph glyph-name="radical" unicode="&#x221a;" horiz-adv-x="1495" 
d="M1421 1759l-583 -1880q-9 -33 -52 -33h-151q-18 0 -26.5 8t-14.5 29l-283 926q-3 10 -5.5 14t-6.5 6t-12 2h-199q-22 0 -22 25v96q0 29 22 29h303q32 0 41 -31l285 -966l536 1773q8 24 14 27q7 4 21 4h113q31 0 20 -29z" />
    <glyph glyph-name="infinity" unicode="&#x221e;" horiz-adv-x="1257" 
d="M1176 745q0 -65 -7 -121t-27.5 -118t-54 -105t-92 -71.5t-135.5 -28.5h-12q-157 0 -254 107q-72 -111 -199 -111h-12q-77 0 -134 29t-88 71.5t-49.5 106t-24 118t-5.5 121.5v52q0 446 313 446h15q146 0 249 -108q37 59 86.5 84.5t118.5 25.5h13q77 0 133.5 -28.5
t87.5 -71t49.5 -106t23.5 -118t5 -122.5v-52zM1028 745v52q0 58 -2 98t-11 85t-24.5 72.5t-44.5 45.5t-69 18h-13q-73 0 -106.5 -71.5t-61.5 -276.5q-30 -192 -47 -244q86 -98 199 -98h12q50 0 84.5 25.5t52 72.5t24.5 100t7 121zM602 1010q-88 104 -194 104h-11
q-51 0 -85 -26t-51 -74t-23.5 -99.5t-6.5 -119.5v-52q0 -57 2 -96.5t11 -85t24.5 -73t44.5 -46t70 -18.5h12q70 0 105 75t63 281q30 199 39 230z" />
    <glyph glyph-name="integral" unicode="&#x222b;" horiz-adv-x="923" 
d="M846 1434q0 -22 -23 -19q-78 4 -155 4q-80 0 -98.5 -32t-18.5 -144v-1339q0 -61 -4.5 -102.5t-20 -86t-44 -71t-79 -43.5t-122.5 -17q-97 0 -183 21q-20 3 -20 26v82q0 21 22 19q78 -4 156 -4q80 0 98.5 32t18.5 144v1339q0 61 4.5 102.5t20 86t44 71t79 43.5t122.5 17
q96 0 182 -21q21 -3 21 -26v-82z" />
    <glyph glyph-name="approxequal" unicode="&#x2248;" 
d="M985 1110q0 -107 -44 -161t-138 -54q-27 0 -45.5 2.5t-49.5 15.5t-65 39l-106 86q-37 30 -52.5 37.5t-38.5 7.5q-31 0 -44 -23t-13 -71v-43q0 -35 -35 -35h-63q-33 0 -33 35v43q0 108 49 165.5t133 57.5q43 0 75.5 -13.5t88.5 -57.5l117 -92q38 -29 78 -29q28 0 41.5 20
t13.5 70v47q0 35 35 35h63q15 0 22.5 -5.5t9 -12t1.5 -17.5v-47zM985 618q0 -107 -44 -161t-138 -54q-27 0 -45.5 2.5t-49.5 16t-65 39.5l-106 86q-37 30 -52.5 37.5t-38.5 7.5q-31 0 -44 -23t-13 -71v-43q0 -35 -35 -35h-63q-33 0 -33 35v43q0 108 49 165.5t133 57.5
q43 0 75 -14t89 -58l117 -92q38 -29 78 -29q28 0 41.5 20t13.5 70v48q0 34 35 34h63q15 0 22.5 -5.5t9 -11.5t1.5 -17v-48z" />
    <glyph glyph-name="notequal" unicode="&#x2260;" 
d="M1055 535q0 -33 -41 -33h-416l-158 -463q-4 -12 -8 -19.5t-15 -13.5t-28 -6h-76q-15 0 -23 12t-3 27l157 463h-219q-41 0 -41 33v81q0 33 41 33h271l104 305h-375q-41 0 -41 33v82q0 33 41 33h426l135 393q12 39 52 39h75q15 0 23.5 -12t3.5 -27l-135 -393h209
q41 0 41 -33v-82q0 -33 -41 -33h-260l-105 -305h365q41 0 41 -33v-81z" />
    <glyph glyph-name="lessequal" unicode="&#x2264;" horiz-adv-x="1075" 
d="M829 334q0 -23 -26 -23h-141q-28 0 -50 25l-411 412q-13 10 -20 30t-7 37q0 16 7.5 36t19.5 30l411 411q22 25 50 25h141q26 0 26 -23q0 -17 -16 -30l-451 -449l451 -450q16 -13 16 -31zM1004 33q0 -33 -41 -33h-850q-41 0 -41 33v67q0 33 41 33h850q41 0 41 -33v-67z
" />
    <glyph glyph-name="greaterequal" unicode="&#x2265;" horiz-adv-x="1075" 
d="M246 334q0 18 16 31l451 450l-451 449q-16 13 -16 30q0 23 26 23h142q26 0 49 -25l411 -411q12 -10 19.5 -30t7.5 -36q0 -17 -7.5 -37t-19.5 -30l-411 -412q-23 -25 -49 -25h-142q-26 0 -26 23zM72 33v67q0 33 41 33h850q41 0 41 -33v-67q0 -33 -41 -33h-850
q-41 0 -41 33z" />
    <glyph glyph-name="lozenge" unicode="&#x25ca;" horiz-adv-x="1058" 
d="M977 737q0 -48 -45 -102l-316 -389q-48 -60 -86 -60q-40 0 -88 60l-315 389q-45 58 -45 102q0 48 45 105l319 399q36 45 84 45q50 0 82 -45l320 -399q45 -57 45 -105zM809 735q0 18 -23 51l-217 277q-21 27 -39 27q-17 0 -41 -27l-217 -277q-20 -29 -20 -51q0 -25 24 -55
l211 -264q17 -20 25 -26.5t18 -6.5q14 0 43 33l211 264q25 36 25 55z" />
    <glyph glyph-name="j.dotless" unicode="&#xe008;" horiz-adv-x="505" 
d="M342 -131q0 -153 -63 -212.5t-193 -59.5q-56 0 -111 8q-36 5 -36 33v75q0 29 43 29h84q58 0 77 25t19 102v1216q0 16 10.5 28.5t26.5 12.5h106q17 0 27 -11.5t10 -29.5v-1216z" />
    <glyph glyph-name="uni2014.alt" unicode="&#xe009;" horiz-adv-x="1228" 
d="M1137 539q0 -15 -11 -25t-28 -10h-967q-17 0 -28 10t-11 25v79q0 15 11 26t28 11h967q17 0 28 -11t11 -26v-79z" />
    <glyph glyph-name="zero.fitted" unicode="&#xf639;" 
d="M1122 623q0 -637 -501 -637q-241 0 -372.5 154.5t-131.5 482.5v276q0 328 131.5 482.5t372.5 154.5q501 0 501 -637v-276zM936 623v276q0 479 -315 479q-316 0 -316 -479v-276q0 -480 316 -480q315 0 315 480z" />
    <glyph glyph-name="two.fitted" unicode="&#xf63a;" 
d="M1077 1169q0 -120 -60.5 -208.5t-205.5 -186.5l-197 -133q-167 -113 -226.5 -206.5t-59.5 -229.5v-43h690q18 0 29.5 -9t11.5 -26v-90q0 -17 -11.5 -27t-29.5 -10h-813q-17 0 -29 11t-12 28v166q0 164 74.5 296t238.5 242l207 140q130 88 170.5 141.5t40.5 144.5
q0 111 -71.5 161t-235.5 50q-147 0 -363 -30h-8q-33 0 -33 36v72q0 29 39 37q158 41 365 41q250 0 369.5 -89.5t119.5 -277.5z" />
    <glyph glyph-name="three.fitted" unicode="&#xf63b;" 
d="M1067 424q0 -221 -137 -329.5t-373 -108.5q-171 0 -346 41q-16 3 -27.5 14t-11.5 25v69q0 17 9.5 26t25.5 9h6q223 -29 344 -29q167 0 243.5 67.5t76.5 215.5v43q0 44 -12 85.5t-38 80t-75 61.5t-115 23h-373q-17 0 -28 10t-11 27v71q0 17 11 28t28 11h373q70 0 120 22
t74.5 60t35 77t10.5 85v29q0 127 -74.5 185t-245.5 58q-29 0 -59 -1.5t-52.5 -3t-56.5 -5t-52.5 -5.5t-61 -7.5t-62.5 -7.5h-6q-35 0 -35 34v72q0 13 12 24.5t27 14.5q201 41 346 41q119 0 209 -20t159.5 -65.5t105.5 -124t36 -189.5v-29q0 -104 -50.5 -188.5t-144.5 -131.5
q69 -34 114.5 -89t63 -112t17.5 -120v-43z" />
    <glyph glyph-name="four.fitted" unicode="&#xf63c;" 
d="M1161 442q0 -17 -10.5 -26.5t-28.5 -9.5h-178v-365q0 -16 -9.5 -28.5t-25.5 -12.5h-118q-17 0 -26 11.5t-9 29.5v365h-592q-46 0 -65 17.5t-19 61.5v78q0 43 24 76l607 850q21 33 59 33h121q53 0 53 -45v-916h178q16 0 27.5 -10t11.5 -27v-82zM758 561v701q0 12 -8 12h-2
q-9 0 -17 -12l-473 -672q-6 -9 -6 -17q0 -12 16 -12h490z" />
    <glyph glyph-name="five.fitted" unicode="&#xf63d;" 
d="M1081 463q0 -227 -136.5 -352t-385.5 -125q-209 0 -360 37q-20 5 -29.5 13t-9.5 27v76q0 31 30 31h11q163 -29 358 -29q334 0 334 322v31q0 151 -99 212.5t-329 61.5h-246q-13 0 -23 10.5t-10 24.5v2l58 682q1 15 13.5 25t27.5 10h704q18 0 29.5 -9t11.5 -26v-90
q0 -33 -41 -33h-588l-32 -442h96q118 0 210.5 -13t170.5 -43.5t128.5 -79t78.5 -122t28 -170.5v-31z" />
    <glyph glyph-name="six.fitted" unicode="&#xf63e;" 
d="M1118 504q0 -248 -126 -383t-374 -135q-236 0 -365.5 144t-129.5 437v359q0 321 132.5 465.5t401.5 144.5q190 0 353 -35q47 -11 47 -39v-80q0 -36 -37 -36q-2 0 -6 1t-6 1q-166 32 -351 32q-92 0 -157 -22.5t-102.5 -59t-58 -98.5t-26.5 -123t-6 -151v-23q191 41 309 41
q84 0 155 -12.5t136.5 -43.5t111 -78.5t72.5 -122.5t27 -171v-12zM934 504v12q0 80 -26 137t-73 88t-100.5 44.5t-118.5 13.5q-157 0 -309 -37v-195q0 -123 20 -207.5t61.5 -133t96.5 -69t133 -20.5q152 0 234 85t82 282z" />
    <glyph glyph-name="seven.fitted" unicode="&#xf63f;" horiz-adv-x="1107" 
d="M1024 1393q0 -48 -27 -107l-589 -1255q-16 -31 -46 -31h-122q-14 0 -22.5 9t-8.5 22q0 10 6 22l619 1286q2 2 2 9q0 14 -15 14h-698q-18 0 -29.5 9t-11.5 26v86q0 15 12 27t29 12h747q81 0 117.5 -35.5t36.5 -93.5z" />
    <glyph glyph-name="eight.fitted" unicode="&#xf640;" 
d="M1128 424q0 -109 -39 -194t-107.5 -137.5t-157.5 -79.5t-193 -27h-21q-104 0 -193 27t-157.5 79.5t-107.5 137.5t-39 194v39q0 97 52 188.5t146 143.5q-95 49 -144.5 132.5t-49.5 186.5v19q0 103 37 181.5t104.5 126.5t155.5 71.5t196 23.5h21q108 0 196 -23.5
t155.5 -71.5t104.5 -126.5t37 -181.5v-19q0 -103 -49.5 -186.5t-144.5 -132.5q94 -52 146 -143.5t52 -188.5v-39zM944 1114v19q0 123 -80 187t-233 64h-21q-153 0 -233 -64t-80 -187v-19q0 -105 64 -175.5t196 -70.5h127q132 0 196 70.5t64 175.5zM942 424v39q0 46 -14.5 90
t-43.5 82.5t-81 62t-119 23.5h-127q-67 0 -119 -23.5t-81 -62t-43.5 -82.5t-14.5 -90v-39q0 -134 80 -208.5t231 -74.5h21q151 0 231 74.5t80 208.5z" />
    <glyph glyph-name="nine.fitted" unicode="&#xf641;" 
d="M1100 596q0 -321 -133 -465.5t-402 -144.5q-193 0 -352 34q-24 5 -36.5 13.5t-12.5 25.5v80q0 18 10.5 27.5t26.5 9.5q2 0 6 -1t6 -1q172 -33 350 -33q67 0 119.5 11.5t89 31t63 52.5t42 68t24 85t11.5 97t3 110v22q-191 -40 -309 -40q-84 0 -155.5 12.5t-137 43.5
t-111.5 78.5t-73 122.5t-27 171v12q0 247 126.5 382.5t373.5 135.5q237 0 367.5 -144.5t130.5 -437.5v-358zM913 760l2 194q0 123 -20 207.5t-61.5 133t-96.5 69t-133 20.5q-154 0 -235.5 -84.5t-81.5 -281.5v-12q0 -80 26 -137t72.5 -88t100 -44.5t118.5 -13.5
q157 0 309 37z" />
    <glyph glyph-name="zero.taboldstyle" unicode="&#xf643;" 
d="M1122 551q0 -286 -131 -425.5t-370 -139.5t-371.5 140t-132.5 425v31q0 285 132.5 425t371.5 140t370 -139.5t131 -425.5v-31zM936 551v31q0 207 -82.5 307t-232.5 100t-233 -100t-83 -307v-31q0 -207 83 -307.5t233 -100.5t232.5 100.5t82.5 307.5z" />
    </font>
</defs>
</svg>
